<?xml version="1.0" standalone="no"?>
<!DOCTYPE svg PUBLIC "-//W3C//DTD SVG 1.1//EN" "http://www.w3.org/Graphics/SVG/1.1/DTD/svg11.dtd">
<svg xmlns="http://www.w3.org/2000/svg">
<defs >
<font id="JustAnotherHand" horiz-adv-x="583" ><font-face
    font-family="Just Another Hand"
    units-per-em="2048"
    panose-1="2 0 5 6 0 0 0 2 0 3"
    ascent="1440"
    descent="-608"
    alphabetic="0" />
<glyph unicode=" " glyph-name="space" horiz-adv-x="300" />
<glyph unicode="!" glyph-name="exclam" horiz-adv-x="341" d="M276 272Q276 228 236 228Q224 228 207 231T171 240T139 254T118 274Q110 288 110 303T110 336Q104 558 95 777T76 1220Q74 1267 72 1314T70 1410Q70 1433 75 1444T106 1456Q119 1456 134 1453T162
1443T186 1427T202 1404Q205 1396 209 1351T219 1236T229 1076T239 893T250 705T259 531T267 391T274 304Q274 296 275 288T276 272ZM120 108Q120 118 127 123T144 131T165 134T184 134Q194 134 207 134T233 130T253 119T262 98Q262 93 262 77T261 41T259 7T256
-10Q250 -21 237 -22T212 -24Q182 -24 167 -21T146 -9T137 16T130 58Q128 70 124 82T120 108Z" />
<glyph unicode="&quot;" glyph-name="quotedbl" horiz-adv-x="386" d="M163 1252Q163 1183 161 1114T159 976Q159 965 159 955T155 937T145 923T125 918Q92 918 66 935T35 988Q32 1014 32 1038T29 1088Q24 1136 20 1184T15 1280Q15 1300 23 1311T53 1322Q70 1322
89 1319T125 1309T152 1288T163 1252ZM363 1252Q363 1183 361 1114T359 976Q359 965 359 955T355 937T345 923T325 918Q292 918 266 935T235 988Q232 1014 232 1038T229 1088Q224 1136 220 1184T215 1280Q215 1300 223 1311T253 1322Q270 1322 289 1319T325 1309T352
1288T363 1252Z" />
<glyph unicode="#" glyph-name="numbersign" horiz-adv-x="575" d="M233 738L221 640Q242 642 263 644T305 650L315 746Q295 744 275 742T233 738ZM257 958Q257 928 253 899T245 840L329 852L333 890L353 1036Q354 1044 354 1059T358 1090T367 1116T387 1128Q413
1128 431 1107T449 1060Q449 1012 442 960T429 860Q446 862 462 863T495 864Q512 864 525 861T539 836Q539 828 538 822T535 810Q527 784 517 772T492 756T460 752T417 752L409 662Q424 664 440 665T471 666Q488 666 501 661T515 636Q515 627 512 616T504 593T492
572T477 558Q460 550 438 551T397 552Q396 542 394 516T388 454T381 381T373 310T366 254T359 228Q356 225 352 223T341 220Q306 220 284 242T261 298Q261 331 266 363T277 428L291 544Q270 542 250 541T209 536Q204 488 199 441T187 346Q184 332 178 323T157 314Q144
314 131 319T106 332T87 352T79 378Q79 414 87 451T101 524Q89 522 76 521T51 520Q37 520 29 525T21 546Q21 569 29 583T50 604T80 615T115 622L129 724Q117 722 105 721T81 720Q67 720 59 725T51 746Q51 769 59 783T80 805T110 817T145 824L161 940Q162 948 163
963T168 992T178 1017T197 1028Q210 1028 221 1022T240 1005T252 983T257 958Z" />
<glyph unicode="$" glyph-name="dollar" horiz-adv-x="477" d="M299 116Q301 59 300 0T293 -118Q291 -135 283 -143T257 -152Q243 -152 226 -149T194 -139T168 -121T157 -92Q157 -80 158 -70T161 -48Q167 -6 171 37T181 122Q113 137 78 186T43 304Q43 317 44 339T51
384T66 422T95 438Q110 438 129 429T161 410Q176 401 182 390T189 360Q189 340 184 321T179 282Q179 258 193 240T233 222Q251 222 267 229T296 250T315 279T323 314Q323 328 320 341T311 366Q266 472 214 573T105 776Q84 817 65 861T45 952Q45 984 56 1012T86
1064T130 1105T185 1132Q179 1176 173 1221T167 1308Q167 1334 177 1342T211 1350Q220 1350 234 1348T264 1341T290 1329T305 1312Q308 1306 308 1300T309 1288Q309 1276 308 1265T305 1242V1136Q328 1129 350 1117T388 1087T415 1047T425 998Q425 966 393 966Q361
966 344 978T313 1006T286 1033T249 1046Q231 1046 216 1038T190 1017T173 987T167 954Q167 916 186 880T223 812Q261 744 295 677T365 540Q378 514 393 486T422 430T444 372T453 312Q453 277 441 247T407 193T358 152T299 126V116Z" />
<glyph unicode="%" glyph-name="percent" horiz-adv-x="965" d="M381 924Q381 895 379 858T371 782T354 706T323 638T275 590T207 572Q165 572 137 591T90 640T61 706T45 778Q36 825 32 873T27 970Q27 1018 31 1065T51 1160Q48 1165 46 1170T43 1182Q43 1185 43
1188T45 1196Q55 1220 70 1243T104 1285T148 1314T201 1326Q242 1326 271 1305T321 1248T353 1169T371 1081T379 995T381 924ZM269 890Q269 910 268 939T264 1002T256 1069T244 1136T227 1194T203 1236Q180 1202 166 1173T145 1115T135 1053T133 980Q133 967 134
938T139 873T147 797T161 726T180 673T205 652Q210 652 215 658T224 671T233 687T239 700Q256 745 262 793T269 890ZM705 1158Q705 1135 696 1113T677 1070Q597 860 523 651T377 230Q374 221 369 202T357 163T345 126T335 104Q328 94 315 94Q305 94 292 98T266
110T246 128T237 150Q237 159 248 195T279 286T324 409T376 549T430 692T480 823T520 928T545 994L597 1128Q603 1145 609 1162T623 1194Q628 1203 634 1209T651 1216Q674 1216 689 1198T705 1158ZM941 404Q941 375 939 338T931 262T914 186T883 118T835 70T767
52Q725 52 697 71T650 120T621 186T605 258Q596 305 592 353T587 450Q587 498 591 545T611 640Q608 645 606 650T603 662Q603 665 603 668T605 676Q615 700 630 723T664 765T708 794T761 806Q802 806 831 785T881 728T913 649T931 561T939 475T941 404ZM829 370Q829
390 828 419T824 482T816 549T804 616T787 674T763 716Q740 682 726 653T705 595T695 533T693 460Q693 447 694 418T699 353T707 277T721 206T739 153T765 132Q770 132 775 138T784 151T793 167T799 180Q816 225 822 273T829 370Z" />
<glyph unicode="&amp;" glyph-name="ampersand" horiz-adv-x="586" d="M339 198Q301 272 268 347T207 500Q189 440 174 375T159 246Q159 232 161 210T169 166T187 130T219 114Q235 114 252 123T285 145T315 172T339 198ZM237 1002Q245 1027 253 1054T269 1109T280
1166T285 1222Q285 1230 284 1238T277 1254Q272 1256 269 1256T263 1256H257Q249 1245 245 1229T239 1195T236 1160T235 1130V1092Q235 1069 235 1047T237 1002ZM599 492Q599 454 590 412T565 327T529 246T487 176Q491 168 505 145T533 97T559 51T571 24Q571 15
565 10T549 1T530 -3T513 -4Q490 -4 474 2T446 20T424 46T403 80Q364 45 317 23T217 0Q162 0 125 20T64 74T31 152T21 244Q21 303 32 367T62 495T101 621T143 738Q125 833 114 931T103 1126Q103 1168 107 1210T128 1287T176 1342T261 1364Q295 1364 324 1354T374
1325T407 1279T419 1216Q419 1160 404 1096T367 965T321 834T277 716Q300 613 334 516T413 322Q434 372 443 421T453 524Q453 544 460 556T491 568Q509 568 528 564T563 550T589 527T599 492Z" />
<glyph unicode="&apos;" glyph-name="quotesingle" horiz-adv-x="186" d="M163 1252Q163 1183 161 1114T159 976Q159 965 159 955T155 937T145 923T125 918Q92 918 66 935T35 988Q32 1014 32 1038T29 1088Q24 1136 20 1184T15 1280Q15 1300 23 1311T53 1322Q70
1322 89 1319T125 1309T152 1288T163 1252Z" />
<glyph unicode="(" glyph-name="parenleft" horiz-adv-x="381" d="M426 -76Q426 -89 413 -101T382 -122T346 -136T316 -142Q296 -142 278 -132T245 -105T216 -71T192 -38Q139 40 106 125T53 301T26 483T18 668Q18 762 28 871T64 1088T132 1294T236 1466Q241 1472
248 1480T264 1495T282 1508T300 1514Q312 1514 322 1507T339 1488T351 1463T356 1440Q356 1429 346 1408T323 1364T296 1319T276 1284Q246 1219 226 1146T192 997T174 844T168 698Q168 618 174 533T197 362T243 197T316 48Q333 22 350 1T394 -38Q403 -46 414 -54T426
-76Z" />
<glyph unicode=")" glyph-name="parenright" horiz-adv-x="380" d="M363 702Q363 609 353 501T317 284T249 78T145 -94Q140 -100 133 -108T116 -124T98 -137T81 -142Q69 -142 59 -135T41 -116T29 -92T25 -68Q25 -57 35 -36T58 8T84 53T103 88Q133 152 154 225T188
374T207 527T213 674Q213 753 207 839T184 1010T138 1174T65 1322Q47 1348 30 1370T-13 1410Q-22 1418 -33 1425T-45 1448Q-45 1461 -32 1473T-2 1494T34 1508T63 1514Q83 1514 101 1504T135 1477T164 1443T187 1410Q239 1332 273 1246T327 1070T355 887T363 702Z"
/>
<glyph unicode="*" glyph-name="asterisk" horiz-adv-x="694" d="M348 850Q324 825 304 806T264 768T224 732T178 690Q169 681 159 676T136 670Q125 670 108 676T76 693T49 715T38 740Q38 751 42 757T52 772Q56 776 67 785T95 807T129 834T167 864Q211 897 264
938Q213 956 171 973Q153 980 136 987T103 1001T77 1013T62 1022Q47 1033 40 1044T32 1074Q32 1084 36 1100T47 1131T65 1158T88 1170Q101 1170 132 1154T195 1117Q233 1093 276 1064Q272 1107 269 1147Q266 1182 264 1218T262 1280Q262 1300 270 1311T300 1322Q317
1322 336 1319T372 1308T399 1287T410 1252Q410 1229 410 1196T409 1130Q408 1093 408 1054Q456 1093 497 1123Q514 1136 531 1148T564 1169T591 1184T608 1190Q620 1190 630 1179T647 1152T659 1120T664 1094Q664 1060 634 1042Q629 1039 618 1033T591 1018T558
1001T522 983Q480 962 430 938Q484 897 528 864Q547 849 565 835T599 808T626 786T642 772Q648 764 653 758T658 740Q658 728 647 716T620 693T587 677T560 670Q546 670 536 675T516 690Q491 713 471 731T431 768T391 805T348 850Z" />
<glyph unicode="+" glyph-name="plus" horiz-adv-x="531" d="M330 400Q330 380 314 375T282 370Q237 370 211 385T184 452V650Q152 648 120 648T54 648Q42 648 30 653T18 674Q18 702 37 717T82 738T137 745T186 748Q187 771 187 806T186 877T187 946T194 1000Q197
1014 204 1020T226 1026Q261 1026 278 1011T302 974T309 924T310 872L312 756Q351 759 391 761T470 764Q487 764 500 759T514 734Q514 720 507 704T492 676Q478 656 456 654T414 652L314 650Q314 593 315 535T328 420Q328 415 329 411T330 400Z" />
<glyph unicode="," glyph-name="comma" horiz-adv-x="234" d="M191 96Q191 34 171 -23T115 -132Q110 -138 105 -146T92 -162T77 -175T61 -180Q50 -180 36 -172T9 -151T-12 -125T-21 -100Q-21 -92 -15 -82T-2 -61T14 -40T27 -22Q40 1 47 21T57 60T61 100T67 146Q69
164 78 169T105 174Q146 174 168 159T191 96Z" />
<glyph unicode="-" glyph-name="hyphen" horiz-adv-x="436" d="M426 774Q426 760 420 748Q414 731 409 720T395 703T376 695T346 692H74Q67 692 57 692T36 695T18 703T10 720Q10 744 27 762T68 786Q88 789 108 789T148 792Q205 795 262 798T378 802Q385 802 393
802T409 799T421 790T426 774Z" />
<glyph unicode="." glyph-name="period" horiz-adv-x="218" d="M35 108Q35 118 42 123T59 131T80 134T99 134Q109 134 122 134T148 130T168 119T177 98Q177 93 177 77T176 41T175 7T173 -10Q165 -21 153 -22T129 -24Q98 -24 83 -21T61 -9T53 16T47 58Q44 70 40
82T35 108Z" />
<glyph unicode="/" glyph-name="slash" horiz-adv-x="474" d="M451 1380Q451 1344 442 1310T425 1240Q393 1092 364 946T303 650Q273 501 240 353T181 56Q179 42 177 26T170 -4T155 -28T127 -38Q113 -38 94 -33T57 -18T27 5T15 36Q15 42 16 48T17 60Q32 132 49
204T83 348L281 1234Q285 1250 290 1280T302 1342T316 1402T329 1442Q335 1453 341 1457T359 1462Q375 1462 391 1456T421 1438T443 1412T451 1380Z" />
<glyph unicode="0" glyph-name="zero" horiz-adv-x="683" d="M262 1156Q244 1113 233 1063T216 961T208 858T206 760Q206 743 207 705T213 616T223 506T237 388T255 274T279 177T309 110T344 84Q357 84 368 97T389 128T404 164T414 192Q444 287 456 383T468 580Q468
654 465 736T452 901T427 1064T386 1214Q378 1237 368 1260T340 1300Q338 1298 326 1277T301 1231T276 1184T262 1156ZM620 648Q620 614 619 567T615 464T604 351T583 237T550 131T502 44T435 -16T348 -38Q301 -38 265 -19T203 33T157 106T126 191T105 278T92 358Q78
453 71 548T64 740Q64 837 72 934T106 1124Q100 1133 95 1142T90 1162Q90 1168 91 1172T94 1182Q107 1222 129 1266T181 1346T251 1406T338 1430Q380 1430 413 1414T471 1371T514 1310T544 1237T565 1161T580 1090Q600 980 610 870T620 648Z" />
<glyph unicode="1" glyph-name="one" horiz-adv-x="379" d="M304 38Q304 15 288 8T252 0Q237 0 216 4T180 14Q160 23 151 35T139 62T135 93T134 128Q116 436 105 740T94 1352Q94 1372 100 1384T130 1396Q157 1396 185 1383T226 1344Q230 1336 231 1317T234 1277T235
1236T236 1204Q244 946 254 690T290 176Q293 141 298 107T304 38Z" />
<glyph unicode="2" glyph-name="two" d="M533 104Q533 90 530 75T521 48Q514 31 496 23T455 13T409 10T371 10Q329 7 287 3T203 -4Q190 -30 163 -30Q155 -30 143 -27T119 -18T96 -6T81 8Q70 16 64 27T57 52Q57 75 67 95T85 136Q141 278 192 419T291 706Q307 753
322 801T350 899T369 998T377 1098Q377 1114 375 1143T365 1200T343 1249T305 1270Q290 1270 274 1261T244 1239T218 1211T199 1184Q182 1157 169 1127T147 1066Q144 1051 142 1037T133 1008Q128 997 122 993T103 988Q87 988 71 993T41 1009T18 1033T9 1066Q9 1092
19 1118T39 1168Q58 1211 83 1250T141 1319T215 1366T307 1384Q371 1384 413 1358T479 1289T513 1194T523 1088Q523 997 501 894T446 685T376 479T307 292L247 118L469 148Q475 148 480 149T491 150Q514 150 523 138T533 104Z" />
<glyph unicode="3" glyph-name="three" horiz-adv-x="672" d="M627 472Q627 420 621 363T599 249T560 140T500 49T414 -14T301 -38Q259 -38 220 -27T145 8Q120 25 99 50T61 104T36 165T27 228Q27 270 71 270Q89 270 115 266T159 252Q174 244 181 234T193 211T201
185T211 158Q223 129 247 108T303 86Q337 86 364 109T410 168T443 250T465 341T477 425T481 490Q481 527 476 570T454 651T409 712T333 734H321Q314 726 306 715T288 693T267 675T245 668Q230 668 215 676T188 698T169 727T161 758Q161 763 161 767T163 774Q178
804 204 830T251 884Q273 914 296 950T338 1026T369 1107T381 1186Q381 1211 376 1232T358 1270T327 1296T279 1306Q256 1306 239 1297T209 1272T189 1238T177 1198Q172 1183 172 1168T167 1138Q162 1124 155 1119T133 1114Q116 1114 99 1119T69 1134T46 1158T37
1192Q37 1222 49 1256T79 1316Q112 1369 166 1395T283 1422Q338 1422 383 1406T462 1358T513 1283T531 1182Q531 1135 521 1090T492 1002T451 918T401 840Q467 826 510 790T580 702T616 591T627 472Z" />
<glyph unicode="4" glyph-name="four" horiz-adv-x="578" d="M275 556Q269 647 264 735T253 912Q227 826 199 735T153 554H179Q203 554 227 554T275 556ZM449 24Q449 3 443 -6T413 -16Q399 -16 385 -13T357 -4T333 12T317 36Q313 43 310 72T303 140T296 225T290
312T285 386T283 430Q262 430 241 429T199 428Q176 428 141 429T73 439T17 465T-7 516Q-7 551 3 586T23 654Q70 819 123 979T227 1302Q224 1331 221 1360T217 1418Q217 1442 232 1449T269 1456Q286 1456 307 1451T346 1436T376 1411T389 1374Q389 1368 387 1363T385
1352Q385 1295 388 1237T395 1122L423 570Q455 573 487 578T549 584Q569 584 581 576T593 546Q593 506 579 486T542 456T490 444T429 440L441 214Q443 167 446 120T449 24Z" />
<glyph unicode="5" glyph-name="five" horiz-adv-x="649" d="M601 604Q601 556 598 489T585 349T557 204T506 76T426 -16T311 -52Q256 -52 213 -33T138 19T85 96T53 190Q50 208 47 226T43 262Q43 286 52 302T89 318Q102 318 120 314T154 303T185 284T205 260Q215
239 219 208T231 146T257 95T311 74Q340 74 361 110T398 202T424 326T440 457T448 571T451 644Q451 666 450 702T443 780T428 864T403 939T364 994T309 1016Q272 1016 237 994Q239 986 240 979T241 964Q241 918 193 918Q187 918 180 919T167 920Q157 915 143 920T114
934T89 954T75 976Q67 1006 68 1038T69 1100Q69 1141 67 1181T63 1262Q60 1265 59 1270T57 1280Q57 1305 60 1324T73 1355T100 1373T147 1380Q191 1382 233 1384T319 1392Q340 1395 360 1398T403 1402Q423 1402 430 1390T437 1360Q437 1340 433 1324T411 1296Q403
1291 375 1285T313 1274T248 1265T205 1260L221 1114Q245 1122 269 1125T317 1128Q380 1128 426 1102T503 1034T554 937T583 824T597 708T601 604Z" />
<glyph unicode="6" glyph-name="six" horiz-adv-x="617" d="M228 444Q230 424 233 393T243 325T257 250T277 179T304 120T338 84Q359 86 374 106T401 155T418 220T428 289T433 353T434 398Q434 417 433 453T427 534T417 625T400 711T374 779T338 814Q307 790 287
747T254 655T236 556T230 470Q230 462 230 456T228 444ZM588 400Q588 361 585 314T572 217T545 123T500 41T434 -16T342 -38Q288 -38 247 -9T176 69T125 177T92 298T74 415T68 510Q68 537 69 564T70 620Q70 819 111 1001T234 1364Q237 1372 242 1384T254 1409T270
1429T290 1438Q303 1438 317 1431T342 1414T361 1389T368 1362Q368 1350 360 1325T342 1272T320 1217T304 1176Q283 1110 266 1044T236 910Q257 925 281 932T332 940Q393 940 436 912T507 839T552 735T576 617T586 500T588 400Z" />
<glyph unicode="7" glyph-name="seven" horiz-adv-x="491" d="M437 1328Q437 1303 431 1276Q410 1131 393 988T361 700Q346 551 333 402T305 104L299 34Q297 22 296 9T291 -14T278 -31T253 -38Q242 -38 225 -34T190 -21T158 -3T139 20Q137 28 136 35T135 52Q135
76 140 101T149 150Q154 185 158 219T165 288Q182 439 197 588T233 886Q247 986 261 1083T291 1280Q226 1275 161 1272T29 1268Q21 1268 12 1268T-6 1272T-19 1281T-25 1298Q-25 1336 -3 1355T55 1380Q84 1385 113 1387T171 1392Q228 1398 288 1411T405 1424Q429
1424 435 1406T441 1370Q441 1359 439 1349T437 1328Z" />
<glyph unicode="8" glyph-name="eight" horiz-adv-x="670" d="M344 740Q336 732 328 725T312 710Q287 682 271 640T246 550T232 457T228 374Q228 359 229 331T233 268T243 199T260 134T286 87T322 68Q355 68 379 88T421 139T448 211T464 290T472 366T474 426Q474
464 473 505T465 585T442 660T398 726Q385 742 370 748L344 740ZM268 860Q295 872 322 872Q340 893 353 923T376 986T389 1052T394 1112Q394 1131 391 1157T382 1209T365 1259T340 1296Q333 1288 329 1280T321 1265T309 1254T288 1250Q280 1250 272 1252T256 1258Q235
1214 226 1159T216 1056Q216 1037 219 1009T228 951T244 897T268 860ZM620 430Q620 381 616 327T599 219T567 116T513 30T434 -30T324 -52Q269 -52 230 -33T162 20T117 97T89 187T76 281T72 370Q72 422 76 475T90 580T120 681T170 774Q141 797 122 829T92 897T77
971T72 1044Q72 1085 77 1129T95 1216T126 1298T172 1370Q176 1376 183 1384T199 1399T217 1411T234 1416Q250 1416 258 1408Q276 1417 297 1423T340 1430Q399 1430 439 1399T503 1321T537 1219T548 1116Q548 1080 543 1042T528 967T502 894T466 830Q515 798 545
752T591 653T614 542T620 430Z" />
<glyph unicode="9" glyph-name="nine" horiz-adv-x="616" d="M389 952Q387 973 384 1004T374 1070T360 1142T340 1211T313 1269T279 1306Q257 1303 242 1284T216 1234T199 1168T189 1098T184 1034T183 988Q183 969 184 934T190 857T201 770T218 687T244 622T279
590Q310 612 330 653T363 743T381 839T387 924Q387 932 387 939T389 952ZM549 894Q549 865 548 837T547 778Q547 583 505 403T383 44Q379 36 374 24T362 1T345 -19T325 -28Q311 -28 298 -21T274 -3T256 22T249 50Q249 60 256 81T272 127T290 173T305 208Q329 277
347 348T379 490Q335 462 287 462Q224 462 181 489T109 562T64 665T40 782T31 899T29 1000Q29 1039 33 1086T47 1180T74 1272T118 1350T184 1405T275 1426Q328 1426 369 1398T440 1323T491 1219T525 1101T543 988T549 894Z" />
<glyph unicode=":" glyph-name="colon" horiz-adv-x="302" d="M77 108Q77 118 84 123T101 131T122 134T141 134Q151 134 164 134T190 130T210 119T219 98Q219 93 219 77T218 41T217 7T215 -10Q207 -21 195 -22T171 -24Q140 -24 125 -21T103 -9T95 16T89 58Q86
70 82 82T77 108ZM77 708Q77 718 84 723T101 731T122 734T141 734Q151 734 164 734T190 730T210 719T219 698Q219 693 219 677T218 641T217 607T215 590Q207 579 195 578T171 576Q140 576 125 579T103 591T95 616T89 658Q86 670 82 682T77 708Z" />
<glyph unicode=";" glyph-name="semicolon" horiz-adv-x="300" d="M221 96Q221 34 201 -23T145 -132Q140 -138 135 -146T122 -162T107 -175T91 -180Q80 -180 66 -172T39 -151T18 -125T9 -100Q9 -92 15 -82T28 -61T44 -40T57 -22Q70 1 77 21T87 60T91 100T97 146Q99
164 108 169T135 174Q176 174 198 159T221 96ZM79 708Q79 718 86 723T103 731T124 734T143 734Q153 734 166 734T192 730T212 719T221 698Q221 693 221 677T220 641T218 607T215 590Q209 579 196 578T171 576Q141 576 126 579T105 591T96 616T89 658Q87 670 83
682T79 708Z" />
<glyph unicode="&lt;" glyph-name="less" horiz-adv-x="448" d="M421 368Q421 357 410 350T384 338T354 332T329 330Q311 330 298 337T273 358Q261 371 238 400T186 467T127 545T73 624T33 691T17 736Q17 762 32 785T59 830L205 1102Q209 1111 215 1124T229 1150T246
1171T267 1180Q278 1180 289 1174T309 1159T323 1139T329 1118Q329 1101 323 1088T311 1060Q270 979 229 898T147 736Q164 702 190 665T245 590T305 517T361 452Q368 444 378 434T397 413T414 390T421 368Z" />
<glyph unicode="=" glyph-name="equal" horiz-adv-x="534" d="M475 874Q475 860 469 848Q463 831 458 820T444 803T425 795T395 792H123Q116 792 106 792T85 795T67 803T59 820Q59 844 76 862T117 886Q137 889 157 889T197 892Q254 895 311 898T427 902Q434 902
442 902T458 899T470 890T475 874ZM481 648Q481 638 476 626T464 603T447 582T429 570Q421 568 415 568T401 568Q371 568 341 570T281 572Q237 572 193 570T105 568Q97 568 89 568T75 571T64 579T59 594Q59 620 75 637T115 660Q135 665 155 665T197 668Q248 673
300 675T405 678Q412 678 425 678T450 674T472 665T481 648Z" />
<glyph unicode="&gt;" glyph-name="greater" horiz-adv-x="447" d="M429 774Q429 762 425 750T414 727T400 704T387 682L241 410Q236 401 230 388T217 361T200 339T179 330Q168 330 157 336T137 351T123 371T117 394Q117 409 123 423T135 450Q176 533 217 613T299
776Q282 810 256 847T201 922T141 995T85 1060Q78 1067 68 1077T49 1098T32 1120T25 1142Q25 1154 36 1161T62 1173T92 1178T117 1180Q135 1180 148 1173T173 1154Q185 1140 208 1111T260 1044T319 966T373 887T413 819T429 774Z" />
<glyph unicode="?" glyph-name="question" horiz-adv-x="632" d="M571 1076Q571 996 563 915T525 758Q507 711 478 661T420 558T372 455T351 354Q351 342 352 331T353 308Q353 282 343 265T303 248Q286 248 262 254T223 268Q199 280 192 296T185 340Q185 392 200
440T238 534T288 624T339 712Q386 800 403 897T421 1094Q421 1114 419 1142T410 1200T395 1260T370 1313T335 1351T287 1366Q254 1366 233 1345T200 1294T184 1231T179 1172Q179 1144 188 1115T208 1060T228 1018T237 996Q237 986 229 980T208 971T184 966T165
964Q127 964 103 987T64 1043T45 1115T39 1182Q39 1238 53 1292T97 1388T172 1456T281 1482Q368 1482 424 1446T513 1351T558 1221T571 1076ZM209 108Q209 118 216 123T233 131T254 134T273 134Q283 134 296 134T322 130T342 119T351 98Q351 93 351 77T350 41T348
7T345 -10Q339 -21 326 -22T301 -24Q271 -24 256 -21T235 -9T226 16T219 58Q217 70 213 82T209 108Z" />
<glyph unicode="@" glyph-name="at" horiz-adv-x="547" d="M296 838Q270 821 254 795T229 738T216 675T212 614Q212 606 212 600T214 586Q228 607 241 639T264 707T283 777T296 838ZM516 842Q516 823 514 793T505 729T489 660T465 597T430 552T384 534Q354 534
337 556T314 606Q307 589 299 571T278 537T251 511T214 500Q190 500 174 511T149 539T136 577T132 618Q132 658 138 700T160 782T201 853T264 908Q276 916 288 921T314 928Q320 940 330 948T354 956Q369 956 378 950T392 933T398 911T400 886Q400 832 392 778T384
670Q384 661 385 652T388 634Q399 652 407 678T421 733T429 790T432 840Q432 868 428 900T411 959T377 1005T320 1024Q285 1024 257 1006T206 959T169 893T143 818T127 744T122 680Q122 652 126 611T142 532T177 466T238 438Q256 438 272 445T303 461T329 477T348
484Q356 484 362 477T372 461T378 441T380 424Q380 404 364 390T324 367T277 353T238 348Q198 348 168 363T114 404T76 464T52 534T38 607T34 676Q34 717 41 765T62 861T100 953T154 1032T227 1087T318 1108Q373 1108 411 1084T472 1022T506 937T516 842Z" />
<glyph unicode="A" glyph-name="A" horiz-adv-x="742" d="M782 550Q782 529 767 506T734 472Q729 469 717 466T692 461T666 456T646 452L670 304Q681 235 686 166T712 28Q714 22 716 17T718 4Q718 -9 711 -16T693 -26T670 -31T648 -32H634Q603 -32 587 -27T561
-10T549 20T542 66Q518 249 488 432Q426 424 364 417T238 404L206 208Q204 190 201 159T193 96T183 35T170 -6Q164 -18 159 -23T140 -28Q122 -28 105 -22T74 -4T52 24T44 60Q44 80 48 100T56 140Q67 206 76 271T96 402Q89 403 80 405T63 412T48 422T42 436Q42 446
49 454T67 470T89 483T108 492Q129 632 148 771T182 1052Q186 1090 189 1129T195 1207T204 1284T220 1360Q229 1396 250 1418T312 1440Q324 1440 335 1438T356 1430Q382 1417 410 1359T466 1219T519 1040T566 854T602 692T624 584Q645 587 666 589T708 592Q718
592 731 591T755 586T774 573T782 550ZM468 558Q442 700 412 839T340 1118Q322 967 301 818T256 520Q310 528 362 537T468 558Z" />
<glyph unicode="B" glyph-name="B" horiz-adv-x="774" d="M752 392Q752 275 715 188T610 43T451 -43T248 -72H214Q204 -72 184 -72T144 -68T108 -56T92 -34Q92 -18 99 -3T119 25T146 46T176 58Q168 68 164 85T157 121T153 158T150 190Q132 345 119 499T106 810Q106
910 109 1008T114 1206Q116 1247 116 1287T118 1368Q112 1366 105 1366T90 1366Q75 1366 61 1371T46 1398Q46 1424 57 1440T85 1464T123 1475T166 1478Q262 1478 352 1454T511 1380T622 1253T664 1068Q664 980 632 900T538 758Q594 734 634 696T701 609T739 506T752
392ZM512 1082Q512 1142 493 1188T440 1269T359 1325T256 1358Q258 1353 258 1349T258 1342Q258 1247 256 1155T254 968V864Q254 844 255 824T256 782Q282 793 308 793T362 794Q437 841 474 917T512 1082ZM602 394Q602 442 594 487T564 569T509 634T424 674Q348
631 262 616Q270 503 281 391T314 166Q319 140 325 115T334 62Q401 71 451 99T535 171T585 272T602 394Z" />
<glyph unicode="C" glyph-name="C" horiz-adv-x="813" d="M821 296Q821 281 817 267T807 238Q785 181 753 133T679 49T584 -6T467 -26Q382 -26 321 10T217 103T147 232T103 374Q79 477 66 580T53 788Q53 849 58 914T78 1042T116 1165T176 1275T261 1365T377 1426Q401
1435 427 1438T479 1442Q531 1442 578 1425T660 1377T716 1302T737 1204Q737 1186 729 1177T701 1168Q664 1168 644 1180T610 1210T589 1249T568 1288T536 1318T481 1330Q446 1330 416 1317T360 1281T314 1232T277 1176Q235 1098 218 1010T201 832Q201 802 203
755T211 650T227 530T251 405T286 288T333 190T393 123T469 98Q512 98 545 120T601 177T640 252T665 328Q668 338 670 346T677 360T689 369T709 372Q723 372 742 367T779 351T809 327T821 296Z" />
<glyph unicode="D" glyph-name="D" horiz-adv-x="800" d="M773 716Q773 609 754 506T692 312T577 149T403 28Q377 16 347 6T284 -11T219 -22T159 -26Q148 -26 135 -26T109 -22T89 -10T81 12Q81 24 86 37T99 62T118 83T139 98Q134 106 130 143T122 237T115 364T110
510T106 659T103 797T102 906T101 974Q101 1068 104 1159T107 1344Q96 1344 87 1350T77 1368Q77 1384 85 1397T105 1421T133 1436T163 1442Q177 1442 190 1440T217 1434Q350 1402 454 1337T628 1179T736 969T773 716ZM625 734Q625 834 601 922T530 1084T411 1214T245
1308V1304Q245 1046 253 793T279 282Q282 243 284 205T293 128Q387 159 451 224T553 372T608 550T625 734Z" />
<glyph unicode="E" glyph-name="E" horiz-adv-x="745" d="M768 218Q768 201 755 185T722 154T683 127T650 106Q616 84 583 65T514 32T441 10T362 2L346 0Q313 0 281 7T220 30T170 70T136 128Q127 155 122 192T115 269T111 347T108 416Q93 722 84 1028Q82 1063
81 1098T80 1168Q80 1228 87 1270T115 1339T175 1378T280 1390Q345 1390 410 1389T542 1388Q562 1388 582 1389T622 1386Q634 1384 643 1380T652 1360Q652 1324 628 1307T571 1283T503 1277T444 1278H314Q294 1278 274 1278T234 1276Q228 1261 226 1245T224 1212Q224
1103 229 997T240 782Q302 787 363 794T486 810Q495 810 502 811T518 812Q539 812 547 801T556 770Q556 756 555 744T548 720Q541 700 525 691T489 679T448 675T410 674Q368 672 328 671T246 668Q247 647 249 605T253 511T259 402T267 297T276 210T286 160Q297
139 311 133T348 126Q385 126 426 140T506 177T580 227T642 280Q653 289 664 298T690 308Q705 308 719 299T744 277T761 247T768 218Z" />
<glyph unicode="F" glyph-name="F" horiz-adv-x="636" d="M653 1360Q653 1330 637 1313T597 1288T546 1278T497 1276Q453 1276 409 1277T321 1278Q300 1278 279 1278T237 1276Q229 1259 227 1242T225 1206Q225 1112 232 1020T247 834Q307 839 367 846T489 862Q497
862 504 863T519 864Q559 864 559 820Q559 808 557 796T549 772Q542 752 526 743T490 730T449 726T411 726L255 720Q261 625 268 532T283 344Q291 272 296 199T313 54V38Q313 15 300 8T267 0Q230 0 197 12Q175 20 164 31T149 57T143 89T141 126Q132 277 121 426T101
728Q95 840 88 950T81 1172Q81 1231 88 1272T117 1340T177 1378T279 1390Q344 1390 408 1389T537 1388Q560 1388 581 1389T623 1386Q635 1384 644 1380T653 1360Z" />
<glyph unicode="G" glyph-name="G" horiz-adv-x="868" d="M841 718Q841 686 830 669T799 642T757 631T709 628Q763 572 795 499T827 348Q827 271 801 198T727 67T612 -25T463 -60Q398 -60 346 -35T253 33T181 134T128 257T92 393T69 530T57 657T53 766Q53 822
58 886T77 1015T112 1142T168 1256T248 1348T357 1408Q380 1416 403 1420T449 1424Q549 1424 615 1370T715 1224Q721 1210 725 1196T729 1166Q729 1148 716 1143T689 1138Q653 1138 631 1151T594 1183T568 1225T542 1267T507 1299T451 1312Q401 1312 363 1284T297
1211T250 1108T220 993T204 882T199 792Q199 753 204 684T220 534T251 370T300 218T370 107T465 64Q512 64 550 91T614 160T655 249T669 338Q669 377 658 415T627 488T579 552T517 602Q505 610 491 616T461 628Q453 629 430 630T383 635T340 644T321 664Q321 682
327 701T344 735T371 760T407 770Q436 770 469 762T529 742Q579 745 628 748T725 758Q742 760 758 763T793 766Q817 766 829 755T841 718Z" />
<glyph unicode="H" glyph-name="H" horiz-adv-x="869" d="M838 778Q838 733 815 715T750 688Q759 534 761 382T764 76Q764 52 754 39T718 26Q696 26 675 31T636 46T609 74T598 118V430Q598 489 598 548T596 666Q510 654 424 646T252 634Q255 421 264 208Q267 164
270 122T274 38Q274 18 263 8T232 -2Q217 -2 200 0T167 9T136 24T114 46Q111 51 109 76T106 139T103 225T102 324T102 424T102 516T102 589T102 632Q88 632 77 638T66 660Q66 678 76 694T102 722V1326Q102 1346 109 1358T138 1370Q172 1370 192 1360T223 1333T237
1291T242 1238Q245 1116 246 994T250 750Q336 758 421 766T592 792Q587 898 580 1002T558 1212Q550 1262 539 1311T528 1412Q528 1430 541 1435T570 1440Q594 1440 618 1432T658 1404Q667 1391 677 1350T695 1251T712 1128T726 1002T736 893T742 822Q754 825 767
827T792 830Q816 830 827 816T838 778Z" />
<glyph unicode="I" glyph-name="I" horiz-adv-x="664" d="M659 144Q659 115 644 90T603 52Q595 48 564 45T497 38T429 32T383 28Q380 11 367 5T339 -2Q322 -2 300 3T261 14Q216 8 170 1T77 -6Q41 -6 41 28Q41 62 60 80T106 107T164 119T219 126Q214 410 209 690T203
1254Q162 1251 123 1249T45 1246Q37 1246 28 1246T12 1249T-1 1257T-7 1274Q-7 1293 1 1307T22 1331T52 1347T85 1356Q128 1364 172 1369T261 1380T350 1392T439 1408Q481 1417 523 1431T609 1446Q633 1446 641 1429T649 1390Q649 1373 646 1358T631 1328Q625 1320
605 1313T556 1299T495 1288T432 1278T376 1270T339 1266Q350 1127 354 988T362 710T368 432T379 154Q436 163 494 171T611 180Q628 180 643 173T659 144Z" />
<glyph unicode="J" glyph-name="J" horiz-adv-x="878" d="M893 1364Q893 1324 876 1305T831 1277T773 1268T713 1262L659 1256Q682 1079 687 903T693 546Q693 490 690 428T676 304T644 186T587 88T498 20T371 -6Q286 -6 220 30T107 126T37 260T13 414Q13 430 14
466T22 539T42 605T79 634Q92 634 111 628T148 610T178 585T191 554Q191 516 182 480T173 406Q173 365 185 315T221 221T281 146T367 116Q403 116 428 129T471 165T499 217T517 276Q540 377 543 480T547 690Q547 827 541 964T517 1238Q449 1230 383 1221T249 1212Q232
1212 223 1219T213 1244Q213 1279 234 1297T287 1324Q340 1339 395 1345T505 1360V1376Q505 1393 517 1397T543 1402Q564 1402 584 1396T621 1376Q677 1385 732 1397T847 1410Q868 1410 880 1398T893 1364Z" />
<glyph unicode="K" glyph-name="K" horiz-adv-x="732" d="M779 16Q779 2 766 -8T735 -24T699 -33T669 -36Q666 -36 664 -37T659 -36Q639 -32 624 -23T597 -1T574 27T551 58Q471 159 401 265T273 490L261 476V90Q261 79 260 66T255 40T243 20T221 12Q189 12 169
22T137 49T121 91T117 144Q117 238 115 331T113 518Q113 559 116 598T119 678Q119 821 108 962T85 1246Q82 1279 79 1312T75 1378Q75 1402 91 1410T125 1418Q181 1418 213 1395T245 1312Q245 1221 251 1134Q256 1025 257 918T261 702Q369 837 431 992T525 1318Q526
1328 528 1343T535 1372T548 1397T571 1408Q587 1408 604 1403T634 1387T656 1363T665 1332Q665 1288 655 1247T633 1164Q612 1079 589 1007T535 869T464 738T369 604L411 520Q464 419 529 324T671 142Q697 113 724 89T773 32Q779 26 779 16Z" />
<glyph unicode="L" glyph-name="L" horiz-adv-x="624" d="M659 146Q659 123 635 102T572 64T487 32T396 7T314 -8T259 -14Q225 -14 197 -6T147 18T115 61T103 124Q103 391 105 656T107 1190Q107 1232 105 1273T103 1356Q103 1366 104 1379T109 1404T121 1424T143
1432Q157 1432 172 1428T201 1416T225 1397T241 1370Q246 1352 246 1332T245 1290Q250 1024 252 762T255 234Q255 204 255 174T259 114Q286 115 325 123T403 143T478 172T533 206Q542 215 552 224T577 234Q590 234 604 225T631 203T651 174T659 146Z" />
<glyph unicode="M" glyph-name="M" horiz-adv-x="956" d="M890 -2Q890 -22 881 -34T848 -46Q836 -46 823 -44T798 -36Q773 -29 759 -23T737 -8T727 17T724 58Q716 263 707 464T676 870Q662 801 649 732T622 592Q608 518 596 441T556 292Q545 263 529 247T480 230Q456
230 441 238T412 264Q399 278 384 318T353 411T320 526T290 643T265 747T248 818V682Q248 549 253 417T270 154Q273 125 278 96T284 38Q284 12 267 4T228 -4Q171 -4 141 20T110 104Q110 225 104 344T98 584Q98 601 98 643T100 742T102 867T106 1004T110 1138T114
1256T118 1342T124 1384Q129 1398 135 1402T156 1406Q194 1406 219 1390T254 1334Q268 1313 286 1258T324 1128T364 969T403 804T437 659T462 558Q491 730 521 900T578 1242Q583 1271 588 1299T594 1356Q594 1374 589 1389T584 1422Q584 1443 597 1447T628 1452Q644
1452 666 1447T708 1432T743 1407T758 1372Q758 1337 752 1298Q788 1129 812 960T848 618Q860 470 867 324T886 32Q888 23 889 15T890 -2Z" />
<glyph unicode="N" glyph-name="N" horiz-adv-x="797" d="M708 82Q708 64 705 47T693 16T670 -6T634 -14Q607 -14 591 -3T560 30Q541 57 526 92T499 165T477 240T456 310Q402 478 356 645T256 980Q251 763 249 548T246 116Q246 105 245 91T240 65T228 43T204 34Q153
34 127 61T100 140Q100 421 101 697T102 1252V1394Q102 1417 110 1432T148 1448Q168 1448 189 1443T226 1426T253 1398T264 1356Q306 1276 334 1191T390 1020Q429 895 467 770T544 518Q538 707 532 895T506 1272Q501 1313 495 1352T488 1432Q488 1453 502 1460T534
1468Q565 1468 587 1463T624 1446T647 1414T660 1362Q666 1308 669 1254T676 1146Q685 1012 689 880T696 614Q699 481 703 349T708 82Z" />
<glyph unicode="O" glyph-name="O" horiz-adv-x="788" d="M727 768Q727 726 726 671T719 552T703 423T675 294T633 175T573 77T492 11T387 -14Q328 -14 280 13T199 86Q172 122 152 174T116 289T89 418T72 550T62 673T59 776Q59 850 65 931T90 1091T139 1245T219
1378Q224 1384 231 1392T248 1407T266 1420T285 1426Q294 1426 302 1421T317 1408Q338 1420 361 1425T409 1430Q482 1430 534 1396T622 1305T678 1178T710 1033T724 890T727 768ZM571 724Q571 750 570 803T562 921T546 1054T517 1177T473 1268T409 1304Q394 1304
382 1290T359 1254T339 1206T321 1156T304 1113T287 1086Q284 1083 278 1083T265 1082Q248 1082 233 1088Q216 1020 210 953T203 816Q203 795 205 753T211 657T222 541T239 418T262 300T294 200T334 130T383 104Q398 104 410 112T433 130Q463 157 485 201T522 298T547
409T562 525T569 633T571 724Z" />
<glyph unicode="P" glyph-name="P" horiz-adv-x="714" d="M703 1076Q703 977 672 877T584 690T448 535T275 432Q281 349 289 267T311 102Q314 87 317 71T321 38Q321 12 308 3T271 -6Q254 -6 230 -2T189 10Q169 21 163 32T153 64Q136 149 133 234T123 404Q103 406
90 414T77 444Q77 464 88 486T115 520Q106 706 107 889T107 1258Q102 1256 98 1255T89 1254Q78 1254 71 1259T60 1273T53 1290T51 1308Q51 1338 66 1351T107 1376Q107 1387 107 1401T111 1428T123 1449T147 1458Q173 1458 197 1448T233 1414Q268 1420 301 1425T369
1430Q448 1430 510 1404T615 1330T680 1217T703 1076ZM553 1094Q553 1140 541 1180T505 1250T444 1297T357 1314Q330 1314 303 1310T249 1298Q249 1115 251 935T265 574Q329 607 382 666T473 796T532 945T553 1094Z" />
<glyph unicode="Q" glyph-name="Q" horiz-adv-x="885" d="M870 -118Q870 -130 857 -140T826 -159T790 -171T762 -176Q739 -176 707 -152T642 -96T582 -31T540 20Q510 2 477 -6T408 -14Q349 -14 305 8T227 67T171 151T131 251T105 355T88 452Q73 540 65 625T56
798Q56 873 65 956T95 1121T151 1276T240 1406Q251 1418 268 1433T300 1448Q311 1448 320 1442T336 1428Q384 1452 440 1452Q519 1452 575 1416T669 1320T728 1184T761 1030T775 877T778 746Q778 674 772 591T751 423T709 261T642 122Q680 78 718 35T802 -46Q809
-51 820 -59T843 -77T862 -97T870 -118ZM622 748Q622 777 620 831T612 949T594 1079T562 1200T513 1289T442 1324Q414 1324 396 1308T364 1266T342 1211T323 1157T301 1115T270 1098Q250 1098 234 1106Q214 1035 207 964T200 820Q200 796 202 753T209 655T221 538T241
415T268 298T304 198T350 130T408 104Q422 104 435 109T460 124Q454 133 439 154T406 204T367 262T331 320T303 366T292 392Q292 401 299 407T316 416T336 420T352 422Q391 422 412 408T458 364Q481 335 502 305T546 244Q570 299 585 362T608 491T619 622T622 748Z"
/>
<glyph unicode="R" glyph-name="R" horiz-adv-x="781" d="M856 4Q856 -8 844 -16T816 -29T783 -36T758 -38Q738 -38 726 -35T696 -22Q691 -19 673 3T627 62T565 144T494 238T422 335T356 424T305 495T274 538L268 536Q274 417 283 299T316 64Q319 52 322 39T326
12Q326 -11 311 -17T278 -24Q268 -24 254 -23T225 -19T198 -12T178 0Q164 12 161 25T154 56Q125 257 118 459T110 864Q110 952 111 1037T114 1210Q102 1211 92 1218T73 1235T61 1257T56 1280Q56 1291 61 1302T75 1322T94 1339T112 1352V1370Q112 1380 112 1393T116
1417T128 1436T152 1444Q173 1444 194 1437T230 1412Q305 1442 388 1442Q461 1442 521 1413T623 1335T689 1222T712 1088Q712 1013 684 943T611 809T509 694T392 602Q486 477 582 355T780 110Q786 103 798 89T824 59T846 27T856 4ZM564 1104Q564 1141 551 1181T514
1253T457 1307T382 1328Q349 1328 317 1319T254 1294Q256 1145 257 996T262 698L280 696Q332 725 382 769T473 867T539 981T564 1104Z" />
<glyph unicode="S" glyph-name="S" horiz-adv-x="712" d="M681 316Q681 242 657 176T589 61T481 -18T341 -48Q273 -48 216 -27T116 34T51 129T27 254Q27 268 28 289T34 329T50 362T81 376Q97 376 116 370T153 352T181 326T193 292V234Q193 165 230 122T339 78Q389
78 425 101T483 160T516 240T527 328Q527 412 493 491T406 645T293 794T180 939T94 1083T59 1230Q59 1291 83 1335T148 1408T240 1450T347 1464Q414 1464 467 1445T557 1390T613 1302T633 1182Q633 1172 632 1157T627 1128T615 1103T593 1092Q573 1092 553 1102Q536
1111 526 1119T509 1138T500 1162T495 1194Q490 1230 482 1259T458 1308T416 1339T349 1350Q320 1350 294 1344T248 1324T217 1288T205 1232Q205 1186 225 1138T279 1040T355 938T443 829T530 714T606 590T660 458T681 316Z" />
<glyph unicode="T" glyph-name="T" horiz-adv-x="677" d="M705 1376Q705 1340 685 1317T629 1286Q573 1274 515 1274T399 1270V1072Q399 820 414 570T465 68Q468 53 471 38T475 8Q475 -16 463 -27T427 -38Q409 -38 383 -34T341 -20Q321 -8 316 4T307 38Q296 109
292 180T283 322Q271 474 263 625T255 928Q255 1011 256 1093T257 1260Q195 1254 133 1248T7 1242Q-8 1242 -17 1249T-27 1272Q-27 1307 -4 1326T51 1354Q102 1365 155 1368T261 1378Q261 1388 262 1397T266 1414T277 1427T297 1432Q321 1432 346 1421T385 1390L551
1408Q575 1411 599 1414T647 1418Q658 1418 668 1417T687 1412T700 1399T705 1376Z" />
<glyph unicode="U" glyph-name="U" horiz-adv-x="833" d="M769 614Q769 560 766 493T751 356T719 220T662 101T574 18T447 -14Q406 -14 367 -2T295 34Q243 72 208 143T149 304T114 494T97 692T90 875T89 1022Q89 1038 89 1068T89 1134T91 1210T94 1284T99 1347T107
1386Q112 1398 118 1403T139 1408Q184 1408 210 1381T237 1308Q237 1242 234 1176T231 1044Q231 1015 231 959T235 832T244 678T260 516T287 361T325 229T378 138T447 104Q484 104 511 133T557 207T587 309T605 419T613 520T615 594Q615 649 613 716T606 857T593
1006T574 1153T549 1290T515 1406Q512 1415 506 1429T499 1452Q499 1468 506 1476T525 1487T549 1491T573 1492Q597 1492 612 1490T649 1476Q663 1468 675 1432T699 1341T719 1217T737 1074T751 927T761 792T767 683T769 614Z" />
<glyph unicode="V" glyph-name="V" horiz-adv-x="725" d="M645 998Q645 761 606 531T473 80Q476 73 482 60T494 33T504 5T509 -14Q509 -28 501 -35T481 -45T457 -48T435 -48Q409 -48 389 -45T349 -24Q335 -12 317 36T276 157T231 321T184 508T138 700T98 878T66
1023T45 1116Q34 1167 21 1217T7 1320Q7 1338 20 1343T47 1348Q76 1348 102 1338T143 1304Q151 1290 155 1267T163 1228Q195 1082 229 938T301 648Q325 557 348 468T401 290Q451 448 472 613T493 944Q493 970 493 1009T491 1092T488 1184T481 1274T471 1353T455
1412Q452 1420 449 1426T445 1442Q445 1454 454 1461T475 1472T500 1477T521 1478Q548 1478 568 1473T609 1446Q618 1437 624 1405T634 1329T640 1235T644 1137T645 1053T645 998Z" />
<glyph unicode="W" glyph-name="W" horiz-adv-x="1045" d="M953 1172Q953 1050 951 928T942 685T920 442T883 200L867 120Q870 113 877 98T893 65T907 32T913 12Q913 -1 903 -8T878 -18T849 -23T825 -24Q814 -24 804 -24T785 -20Q762 -12 754 -2T735 28Q693 108
662 193T606 367T563 545T527 724Q491 394 413 70Q422 52 433 31T445 -12Q445 -26 436 -34T414 -45T386 -48T361 -48Q358 -50 355 -51T347 -52Q312 -52 292 -31T259 20Q224 111 197 213T150 420T116 629T91 832Q77 951 64 1069T51 1308Q51 1329 57 1340T87 1352Q124
1352 144 1341T175 1310T189 1264T195 1208Q215 986 244 766T327 330Q354 469 368 608T397 888Q400 925 401 963T404 1039T411 1116T427 1190Q436 1222 456 1239T511 1256Q545 1256 564 1241T593 1204T608 1153T615 1100Q639 919 677 742T769 390Q789 545 794 699T799
1010Q799 1099 798 1189T785 1370Q785 1381 783 1390T781 1410Q781 1431 794 1440T827 1450Q840 1450 855 1448T886 1441T915 1429T937 1412Q941 1407 943 1390T948 1349T951 1298T952 1246T953 1201T953 1172Z" />
<glyph unicode="X" glyph-name="X" horiz-adv-x="655" d="M650 -30Q650 -42 644 -49T628 -59T608 -63T588 -64Q564 -64 547 -64T517 -57T494 -39T474 -2Q433 87 403 180T340 368Q314 300 285 234T226 102Q212 72 200 42T170 -18Q161 -32 153 -40T126 -48Q113 -48
96 -41T64 -23T37 3T26 32Q26 38 36 63T62 122T96 197T132 275T163 341T182 384Q206 440 224 496T260 610Q254 628 241 668T210 760T171 874T129 997T88 1118T53 1224T29 1302T20 1340Q20 1349 25 1354T39 1362T55 1365T70 1366Q112 1366 135 1348T176 1294Q221
1194 256 1090T326 882Q344 971 361 1059T394 1236Q398 1255 402 1284T410 1344T420 1402T434 1446Q439 1457 444 1461T464 1466Q480 1466 497 1460T527 1443T549 1417T558 1384Q558 1313 543 1244T516 1104Q493 979 472 855T418 608Q466 463 516 321T626 40Q634
23 642 7T650 -30Z" />
<glyph unicode="Y" glyph-name="Y" horiz-adv-x="585" d="M583 1434Q583 1413 570 1358T537 1229T492 1073T443 915T399 780T369 694Q380 605 384 517T393 340Q398 265 402 189T407 38Q407 15 396 3T361 -10Q352 -10 337 -8T307 -1T278 10T259 22Q247 36 244 48T241
78Q241 233 238 386T235 694L227 702Q221 711 214 727T199 762T185 797T175 824Q142 916 113 1008T51 1192Q46 1208 35 1235T13 1293T-6 1349T-15 1390Q-15 1401 -9 1408T6 1418T25 1423T43 1424Q69 1424 91 1422T137 1404Q143 1400 156 1367T185 1285T218 1179T251
1069T278 975T295 918Q328 1046 361 1172T419 1428Q421 1440 423 1454T430 1481T444 1501T469 1510Q482 1510 501 1504T539 1488T570 1464T583 1434Z" />
<glyph unicode="Z" glyph-name="Z" horiz-adv-x="625" d="M626 112Q626 83 612 58T570 22Q561 18 531 16T459 11T369 8T277 7T199 6T150 6Q144 -5 133 -12T108 -20Q95 -20 77 -14T43 4T14 29T2 58Q2 71 8 92T22 135T39 180T52 216L252 800L358 1106Q376 1157 392
1208T432 1310Q400 1308 368 1307T304 1306Q295 1306 273 1306T222 1306T162 1307T103 1309T56 1313T32 1318Q18 1325 18 1340Q18 1369 37 1385T83 1410T139 1420T190 1422Q214 1422 238 1420T286 1418Q336 1418 385 1422T482 1426Q499 1426 519 1423T555 1411T583
1388T594 1352Q594 1334 587 1320T572 1288Q537 1203 510 1118T454 946Q385 739 320 534T186 120Q227 122 268 123T350 128Q407 133 464 141T580 150Q598 150 612 142T626 112Z" />
<glyph unicode="[" glyph-name="bracketleft" horiz-adv-x="426" d="M473 -36Q473 -60 463 -81T431 -114Q417 -122 389 -127T329 -137T267 -144T221 -146Q188 -146 162 -135T127 -88Q119 -53 117 -17T111 54Q105 129 99 202T87 350Q76 502 72 651T63 952Q58 1077
54 1200T49 1448Q49 1461 50 1471T56 1487T70 1495T95 1496Q103 1501 133 1504T201 1510T273 1513T325 1514Q340 1514 345 1505T351 1482Q351 1455 344 1434T307 1404Q280 1395 249 1391T189 1382Q198 1208 204 1033T218 683T239 334T277 -14Q292 -12 312 -7T354
2T395 10T429 14Q452 14 462 0T473 -36Z" />
<glyph unicode="\" glyph-name="backslash" horiz-adv-x="474" d="M450 44Q450 26 442 11T421 -15T391 -32T358 -38Q346 -38 340 -35T328 -20Q322 -8 315 20T302 79T290 141T280 188L82 1076Q65 1148 48 1219T16 1362Q16 1368 15 1374T14 1386Q14 1402 26 1416T55
1440T92 1456T126 1462Q144 1462 154 1452T169 1428T176 1397T180 1368Q206 1217 239 1069T302 772Q334 624 363 477T424 182Q432 147 441 113T450 44Z" />
<glyph unicode="]" glyph-name="bracketright" horiz-adv-x="428" d="M379 -80Q379 -109 372 -120T333 -130Q325 -135 295 -138T227 -142T155 -145T103 -146Q88 -146 83 -137T77 -114Q77 -89 83 -67T119 -36Q148 -28 178 -25T239 -16Q230 159 224 334T210 683T189
1032T151 1380Q135 1378 114 1373T72 1364T32 1356T-1 1352Q-25 1352 -35 1366T-45 1402Q-45 1426 -35 1448T-3 1482Q10 1489 38 1494T99 1504T160 1511T207 1514Q240 1514 266 1502T301 1454Q309 1421 310 1385T317 1312Q323 1238 329 1164T341 1016Q352 865 356
715T365 414Q370 290 374 167T379 -80Z" />
<glyph unicode="^" glyph-name="asciicircum" horiz-adv-x="248" d="M278 870Q278 853 264 848T238 842Q220 842 200 848T168 870Q165 873 161 890T150 932T138 984T126 1039T115 1085T108 1114Q107 1108 103 1089T93 1043T80 988T67 934T57 892T50 872Q45 867
42 864T30 860Q19 860 8 866T-11 882T-25 903T-30 926Q-30 929 -24 959T-10 1032T9 1125T28 1217T43 1289T50 1320Q59 1337 71 1346T104 1356Q119 1356 129 1350T147 1334T159 1312T168 1288Q173 1274 183 1241T205 1164T230 1073T253 984T271 911T278 870Z" />
<glyph unicode="_" glyph-name="underscore" horiz-adv-x="386" d="M401 -106Q401 -120 395 -132Q389 -149 384 -160T370 -177T351 -185T321 -188H49Q42 -188 32 -188T11 -185T-7 -177T-15 -160Q-15 -136 2 -118T43 -94Q63 -91 83 -91T123 -88Q180 -85 237 -82T353
-78Q360 -78 368 -78T384 -81T396 -90T401 -106Z" />
<glyph unicode="`" glyph-name="grave" horiz-adv-x="218" d="M248 1166Q248 1156 243 1147T228 1131T209 1120T190 1116Q178 1116 167 1121T146 1134Q114 1157 99 1168T73 1189T47 1211T2 1248Q-7 1256 -16 1265T-30 1286V1294Q-30 1304 -24 1317T-7 1340T16
1358T40 1366Q55 1366 68 1355T92 1334L176 1248Q183 1241 195 1232T219 1211T239 1188T248 1166Z" />
<glyph unicode="a" glyph-name="a" horiz-adv-x="489" d="M474 13Q474 -7 464 -14T436 -22Q389 -22 369 3T338 69Q335 83 332 97T327 126Q325 139 323 144T319 163Q307 134 290 103T249 45T198 1T135 -16Q99 -16 75 1T38 45T19 104T13 165Q13 233 26 312T64 471T120
624T190 753V752L196 761Q207 776 221 793T256 811Q275 811 289 795T309 760Q335 755 351 748T376 729T388 704T391 672Q391 665 391 657T390 641Q389 633 389 622T389 602Q389 592 392 576T400 543L407 506Q412 477 415 440T424 366Q428 328 432 293T440 227L464
79L467 62Q469 49 471 38T474 13ZM245 588Q245 590 244 594T242 604Q219 555 202 498T173 381T156 262T150 149Q150 144 150 140T151 132V131Q175 168 192 228T222 355T239 484T245 588Z" />
<glyph unicode="b" glyph-name="b" horiz-adv-x="531" d="M508 565Q508 524 504 475T492 372T471 266T438 163T394 73T336 3Q313 -17 285 -29T226 -42Q215 -42 203 -39T185 -22Q163 -20 142 -14T106 15Q103 22 101 32T97 53Q96 58 95 62T93 71Q64 251 54 431T43
794Q43 810 43 850T43 941T44 1048T46 1153T49 1237T53 1283Q57 1297 64 1306T88 1315Q135 1315 155 1286T176 1213V956Q176 909 176 872T176 799T178 726T181 642Q193 669 210 695T250 742T299 776T359 789Q407 789 436 768T481 715T502 642T508 565ZM370 588Q370
608 369 632T356 674Q347 667 341 659T327 641L325 638V639Q297 593 280 532T252 406T237 276T233 159Q233 148 233 127T237 91Q276 124 301 187T342 324T364 469T370 588Z" />
<glyph unicode="c" glyph-name="c" horiz-adv-x="440" d="M444 224Q444 203 437 181T421 139Q409 110 392 83T353 34T303 -1T240 -14Q178 -14 137 17T72 95T39 198T29 304Q29 341 32 391T43 496T68 603T111 697T174 765T264 791Q275 791 296 787T337 776T373 756T389
727Q389 712 376 704T344 693T306 689T274 688H256Q228 663 210 615T182 511T168 403T164 315Q164 267 171 221T202 133Q207 124 216 113T238 101Q247 101 256 116T274 151T287 190T294 218Q295 222 295 227T295 237Q295 246 295 254T298 268Q305 285 316 291T345
297Q360 297 377 293T409 280T434 257T444 224Z" />
<glyph unicode="d" glyph-name="d" horiz-adv-x="518" d="M496 31Q496 20 491 13T479 1T463 -6T446 -8Q434 -8 420 -5T392 3T367 17T349 37Q343 48 341 64T336 98Q326 74 313 51T280 11T238 -17T185 -28Q134 -28 103 -4T54 56T31 136T25 220Q25 253 28 295T36
381T48 466T63 540Q73 577 87 621T124 704T180 770T259 800Q256 881 251 949T239 1090L229 1201L225 1241Q223 1257 222 1273T221 1306Q221 1329 233 1338T266 1347Q310 1347 333 1334T365 1299T376 1248T377 1184Q377 1162 382 1134L387 1097L395 995Q397 971
399 947T403 899L424 684L464 282L467 245Q471 204 474 160T488 73Q491 62 493 52T496 31ZM263 616Q263 627 263 640T262 666V693Q255 683 244 666T227 634Q211 599 198 545T176 431T161 315T156 220Q156 206 156 188T160 152T169 116T185 88Q200 107 212 146T232
236T247 343T256 451T261 547T263 616Z" />
<glyph unicode="e" glyph-name="e" horiz-adv-x="433" d="M436 183Q436 153 420 121T377 63T318 19T251 2Q204 2 170 20T111 70T71 142T46 224T34 309T30 387Q30 417 33 458T45 543T69 630T106 707T160 762T233 783Q265 783 290 770T333 736T360 686T370 628Q370
589 352 543T306 454T242 377T171 324Q173 306 179 272T195 203T220 144T255 119Q265 119 272 125T286 141T296 163T305 186L311 200Q313 203 313 204T315 207Q322 220 328 231T347 250H346Q350 254 354 254T363 255Q374 255 387 248T411 231T429 208T436 183ZM238
624Q238 634 237 645T232 664Q218 647 208 624T190 575T179 523T172 475Q198 506 218 545T238 624Z" />
<glyph unicode="f" glyph-name="f" horiz-adv-x="401" d="M446 1243Q446 1232 437 1225T414 1213T388 1206T368 1204Q345 1204 325 1211T282 1220Q249 1211 223 1180T182 1090T165 942T178 727Q241 740 295 749T380 759Q404 759 413 746T422 713Q422 693 418 676T397
648L188 616Q193 574 196 532T204 448Q220 318 231 235T250 103T262 32T269 3T271 -4T272 -6Q272 -27 259 -35T228 -44Q214 -44 199 -42T168 -34T141 -20T124 2Q116 70 105 132T86 261Q78 340 69 429T53 599Q49 598 45 598T36 599Q20 599 10 606T-1 634Q-1 657
10 676T45 701Q42 756 38 823T35 959T46 1094T84 1210T158 1292T279 1323Q294 1323 321 1318T377 1303T425 1277T446 1243Z" />
<glyph unicode="g" glyph-name="g" horiz-adv-x="535" d="M558 248Q558 238 553 225T539 197T520 167T501 140L486 119L471 93L458 69Q459 49 461 26T465 -18Q476 -121 484 -228T493 -438Q493 -493 484 -549T451 -651T383 -726T273 -755Q227 -755 195 -738T144
-693T115 -626T106 -547Q106 -466 125 -383T174 -219T244 -61T323 88Q323 90 323 92T322 101Q309 77 293 52T256 6T211 -27T156 -40Q114 -40 86 -20T42 31T18 99T11 169Q11 207 15 244T26 316Q36 372 51 437T90 567T143 689T215 786L223 793Q236 806 253 818T288
831Q299 831 307 825T322 810T331 789T335 768Q335 756 326 742H328Q389 742 410 686Q421 676 426 662T432 632Q432 624 431 615T428 597Q426 588 425 580T424 565Q424 542 425 508T428 437T432 365T437 303Q444 312 453 319T476 326Q487 326 501 318T528 298T549
273T558 248ZM283 660Q283 666 283 673T286 688L279 679Q271 670 264 662T251 645Q225 607 206 547T173 420T154 289T147 179Q147 156 148 133T158 88Q172 103 181 120T198 157Q220 206 236 271T262 405T277 540T283 660ZM359 -408Q359 -340 356 -281T347 -153Q329
-196 311 -245T278 -345T255 -446T246 -541V-548Q246 -571 249 -597T268 -641H279Q299 -641 312 -628T335 -593T349 -546T356 -494T358 -445T359 -408Z" />
<glyph unicode="h" glyph-name="h" horiz-adv-x="562" d="M525 54Q525 34 512 25T480 16Q468 16 455 18T430 24Q409 30 398 39T380 59T373 85T370 116Q370 121 370 125T369 133Q366 190 364 250T361 367Q361 396 361 425T363 483Q364 512 364 540T365 598Q365
604 365 609T363 621Q337 583 318 537T283 441T258 342T240 247L237 226Q232 191 227 155T222 82Q222 67 227 49Q229 41 230 34T232 15Q232 -9 220 -17T188 -26Q176 -26 162 -24T134 -18T108 -6T89 12Q83 25 78 81T68 220T59 406T52 619T46 835T42 1032T39 1188T38
1282Q38 1302 43 1318T75 1335Q102 1335 126 1323T161 1284Q163 1280 165 1252T169 1179T173 1077T177 958T181 834T185 718L190 570Q202 601 220 635T261 697T314 743T380 761Q424 761 449 738T486 681T502 608T505 537Q505 517 505 498T503 460Q502 440 502 421T501
381Q501 312 504 240T519 97L521 83Q523 77 524 69T525 54Z" />
<glyph unicode="i" glyph-name="i" horiz-adv-x="254" d="M176 841Q176 824 169 817T141 809Q132 809 113 811T75 819T41 833T26 855Q26 859 29 877T36 917T44 955T50 974V973Q55 981 62 983T76 985Q85 985 99 983T128 976T155 964T170 949Q173 941 173 928T173
903Q173 899 173 894T172 885Q172 880 172 875T174 865Q175 860 175 854T176 841ZM213 44Q213 21 203 12T169 2Q157 2 143 5T114 13T88 27T70 45Q66 51 63 82T59 159T56 262T54 377T53 490T53 586V663Q53 673 53 683T57 700T68 713T90 718Q134 718 154 694T180
628Q185 567 187 507T192 384Q194 328 195 274T202 165Q203 154 204 144T207 124Q209 104 211 85T213 44Z" />
<glyph unicode="j" glyph-name="j" horiz-adv-x="331" d="M168 948Q168 936 168 925T166 901Q165 889 165 877T165 853Q165 835 159 820T130 805Q122 805 104 808T66 817T31 831T16 851Q16 855 20 876T31 921T42 966T49 989V988Q54 999 59 1001T75 1003Q87 1003
103 1001T133 992T158 975T168 948ZM346 309Q346 303 337 282T313 232T283 174T255 119Q249 107 245 98T238 83L247 29Q265 -86 281 -202T297 -436Q297 -471 296 -508T287 -582T263 -650T216 -707Q193 -725 166 -735T110 -746Q55 -746 20 -723T-37 -662T-66 -580T-75
-489Q-75 -410 -60 -332T-19 -178T37 -29T101 115Q86 205 77 293T62 476L59 524Q57 561 55 598T52 673Q52 693 58 707T88 722Q99 722 109 720T130 713V714Q149 705 159 694T174 669T180 641T182 610V594Q185 524 189 464T202 333Q211 351 223 366T258 382Q269 382
284 375T313 357T336 333T346 309ZM163 -412Q163 -346 157 -277T140 -141Q110 -221 88 -309T66 -482Q66 -499 67 -519T72 -561T83 -601T102 -632Q103 -633 108 -633Q121 -633 130 -620T145 -585T154 -538T160 -488T162 -443T163 -412Z" />
<glyph unicode="k" glyph-name="k" horiz-adv-x="481" d="M540 -15Q540 -26 528 -35T501 -50T469 -59T444 -63Q427 -63 413 -57T387 -40T365 -18T345 6Q310 49 273 102T207 203Q207 199 208 193T209 183Q211 162 212 142T217 100Q218 88 219 77T223 52Q225 36
227 20T229 -13Q229 -34 217 -41T185 -49Q171 -49 155 -47T124 -39T97 -23T79 3Q76 15 73 48T68 121T65 203T62 271Q62 277 62 281T61 289Q53 296 47 306T41 325Q41 338 46 348T57 367Q51 490 51 612Q51 713 53 812T58 1012L61 1146Q62 1156 62 1172T62 1206Q62
1228 62 1252T63 1297T65 1335T69 1360V1359Q73 1374 80 1381T104 1388Q146 1388 169 1363T192 1296Q192 1229 192 1163T190 1029Q189 962 189 896T188 762Q188 738 188 714T189 664Q190 644 190 623T190 579L298 751V750L307 768Q310 773 310 775T312 780T319
792T339 816Q344 821 351 825T369 829Q380 829 391 823T412 806T427 784T433 762Q433 754 424 735T401 687T368 627T331 561T293 497T261 442L235 400Q258 360 288 312T353 214T422 120T492 41L502 33Q514 24 527 12T540 -15Z" />
<glyph unicode="l" glyph-name="l" horiz-adv-x="281" d="M303 -29Q303 -43 296 -52T279 -66T256 -74T233 -77Q198 -77 172 -57T127 -6T96 66T76 147T64 225T58 290Q49 383 46 479T42 669Q42 926 60 1178Q60 1182 60 1187T61 1197Q62 1218 63 1245T66 1300T70
1349T77 1381V1380Q81 1394 88 1401T112 1408Q148 1408 173 1384T198 1324Q198 1316 198 1309T196 1294Q195 1287 195 1281T194 1269Q191 1230 190 1192T186 1114Q181 1028 179 943T176 770Q176 733 177 673T181 543T189 397T204 254T225 131T255 46Q264 42 272
34T287 15T298 -7T303 -29Z" />
<glyph unicode="m" glyph-name="m" horiz-adv-x="874" d="M214 5Q214 -18 201 -25T168 -32Q151 -32 135 -30T104 -20T79 -1T64 30Q50 90 48 147T46 266V389Q46 473 53 563T68 738Q68 741 69 745T70 751Q71 762 73 775T79 798T92 816T115 823Q131 823 145 817T171
800T188 774T195 743Q195 723 194 702T190 660Q188 646 188 639T186 616Q198 637 213 658T248 696T289 723T338 734Q364 734 381 726T408 703T422 668T426 626Q426 612 426 599T424 573Q423 560 423 548T422 521Q422 495 423 472T427 422Q437 455 451 497T485 583T528
669T579 745T639 798T706 819Q761 819 783 787T806 705Q806 691 805 676T802 646Q797 592 795 535T792 424V405Q792 335 798 273T822 142L830 115Q834 101 839 84T849 51T856 21T859 -1Q859 -22 844 -29T813 -36Q803 -36 790 -36T765 -33T741 -25T722 -12V-13Q713
-4 709 9T703 35L701 44Q687 98 678 141T662 227T654 316T651 422Q651 473 655 526T665 630Q665 635 665 641T667 653Q629 594 601 524T550 379T511 231T481 89Q481 88 485 78T494 54T503 28T507 11Q507 -12 492 -17T461 -22Q449 -22 435 -21T408 -16T383 -6T364
13Q358 23 350 60T333 148T316 257T301 367T290 458T286 511V526Q254 457 233 378T201 223L197 205Q195 197 194 190T193 175Q193 164 195 148T202 113Q207 87 210 60T214 5Z" />
<glyph unicode="n" glyph-name="n" horiz-adv-x="545" d="M214 5Q214 -18 201 -25T168 -32Q151 -32 135 -30T104 -20T79 -1T64 30Q50 90 48 147T46 266V389Q46 473 53 563T68 738Q68 741 69 745T70 751Q71 762 73 775T79 798T92 816T115 823Q131 823 145 817T171
800T188 774T195 743Q195 726 194 706T191 667Q191 662 191 656T189 645Q203 673 221 703T262 759T314 801T378 817Q407 817 426 808T456 783T472 744T477 697Q477 663 475 629T471 560Q468 525 466 491T464 422Q464 380 466 336T472 251T481 178T491 127Q495 112
499 93T508 53T516 13T519 -21Q519 -43 502 -49T467 -55Q450 -55 429 -53T390 -41Q369 -26 363 1T354 54L351 81Q348 105 343 144T334 230T326 327T323 426Q323 469 326 509T334 590Q336 611 337 624T340 658Q320 626 300 583T262 494T230 403T207 326L201 304Q196
288 193 272T189 242Q189 224 191 201T196 156Q199 131 203 105Q203 103 205 92T209 66T212 35T214 5Z" />
<glyph unicode="o" glyph-name="o" horiz-adv-x="507" d="M484 410Q484 323 470 237T410 73Q396 50 378 29T339 -10T292 -38T238 -49Q194 -49 162 -29T106 25T67 101T43 188T31 275T27 349Q27 385 30 428T40 516T60 605T93 687T141 756T206 805V804Q238 821 270
821Q290 821 301 813T311 784Q366 774 400 731T452 631T477 514T484 410ZM258 660Q241 660 226 673Q207 644 194 607T174 530T163 450T160 375Q160 346 163 301T174 209T198 123T239 64Q270 82 290 121T323 208T339 303T344 385Q344 410 341 450T331 531T312 609T280
663Q271 660 258 660Z" />
<glyph unicode="p" glyph-name="p" horiz-adv-x="560" d="M187 260Q187 212 187 172T188 84L206 97L217 104Q266 143 302 199T363 320T398 451T410 580Q410 592 410 613T405 656T393 692T370 708Q346 708 321 679T275 610T236 530T211 466Q211 465 211 465T210
464V463Q204 449 198 433T189 403Q187 389 186 372T185 335Q185 325 185 316T186 298Q186 287 186 278T187 260ZM242 -654Q242 -676 230 -684T198 -692Q174 -692 145 -685T99 -657Q94 -650 90 -616T81 -537T74 -443T68 -357L64 -304Q52 -90 52 124Q52 249 56 369T66
614L70 719Q70 735 70 750T74 781Q79 794 86 801T111 809Q154 809 174 784T197 721Q229 765 273 791T376 817Q425 817 458 795T512 739T540 662T549 578Q549 499 535 421T492 269T417 130T311 13Q303 6 292 -2T269 -17T245 -29T222 -34Q211 -34 203 -29T189 -17Q191
-86 194 -160T203 -308T215 -456T234 -597Q237 -610 239 -624T242 -654Z" />
<glyph unicode="q" glyph-name="q" horiz-adv-x="528" d="M594 -442Q594 -481 590 -529T571 -618T526 -688T441 -716Q397 -716 366 -700T314 -657T281 -596T263 -524T254 -450T252 -381Q252 -159 276 56Q247 24 213 4T132 -16Q96 -16 72 0T34 41T15 98T9 159Q9
218 20 274T46 388Q75 497 121 589T251 759L259 765H258Q272 779 290 793T328 807Q339 807 347 801T361 785T369 764T372 742Q375 743 376 743T381 744Q397 744 415 739T448 724T473 700T483 667Q483 649 478 626T467 580Q463 565 460 550T454 522Q452 513 452
504T452 487Q448 439 443 392T433 297Q429 266 427 242T421 187Q429 192 438 196T455 200Q467 200 477 192T496 171T508 146T513 122Q513 111 508 101T494 83T475 67T457 56Q518 -60 556 -185T594 -442ZM335 674Q336 677 336 682L328 673Q310 653 293 631T261 583Q235
540 213 485T176 370T152 252T143 141Q143 134 144 125T147 108Q160 119 171 134T192 163V162L196 169Q226 221 249 284T289 413T317 547T335 674ZM454 -446Q454 -368 437 -289T392 -137Q390 -175 389 -212T388 -288V-345Q388 -366 389 -402T394 -478T408 -551T434
-601Q441 -588 445 -567T451 -524T453 -481T454 -446Z" />
<glyph unicode="r" glyph-name="r" horiz-adv-x="493" d="M142 -16Q127 -16 110 -12T77 1T51 23T40 56Q40 84 42 111T48 166V165L54 232Q57 268 59 311T62 398T65 486T66 565Q66 586 66 607T65 651Q64 670 64 693T64 737Q64 758 69 771T101 785Q124 785 149 773T185
739H184Q189 728 191 704T195 660Q212 686 233 715T280 768T333 809T393 825Q435 825 457 804T489 752T500 685T501 620V612Q501 600 501 589T497 568T485 552T461 546Q445 546 427 550T394 564T367 586T355 618Q355 626 355 634T356 650Q356 655 356 662T357 677Q325
645 301 598T257 498T223 392T199 295V292Q196 261 195 231T193 169Q192 133 191 96T185 24Q183 5 174 -5T142 -16Z" />
<glyph unicode="s" glyph-name="s" horiz-adv-x="428" d="M387 733Q387 721 379 713T358 700T334 692T313 690Q301 690 290 692T268 698Q257 701 247 703T226 706Q211 706 196 701T169 687T150 665T142 636Q142 612 152 589T178 541T216 493T262 443Q291 411 320
378T373 309T412 233T427 149Q427 111 415 81T380 30T326 -2T257 -14Q247 -14 227 -10T180 1T127 18T77 37T40 58T25 78Q25 90 36 102T62 125T93 143T121 150Q136 150 152 143T186 127Q205 117 224 109T265 101Q281 101 283 112T286 137Q286 172 274 203T243 265T199
323T149 380Q123 408 99 436T55 493T25 554T13 620Q13 663 32 697T81 757T150 795T228 809Q241 809 268 804T321 788T367 764T387 733Z" />
<glyph unicode="t" glyph-name="t" horiz-adv-x="399" d="M270 25Q270 14 265 7T253 -5T237 -10T220 -12Q209 -12 195 -10T166 -2T141 10T123 29Q117 39 113 66T105 130T100 208T97 288T95 356T94 402Q94 472 96 537T102 672Q97 672 92 671T82 670Q69 668 56 667T28
666Q11 666 -2 672T-15 699Q-15 724 -4 739T24 762T61 774T100 780Q103 780 104 780T108 781Q109 793 110 810T112 849Q113 882 115 919T119 991T124 1052T130 1090Q135 1103 141 1111T166 1119Q206 1119 228 1093T250 1029Q250 985 248 941T243 852L240 801Q265
804 290 810Q314 815 338 819T386 823Q406 823 417 813T428 782Q428 760 420 739T392 707H393Q389 705 369 702T324 695T274 689T237 685H236Q234 629 233 575T232 464Q232 387 236 301T252 136L260 91Q264 74 267 58T270 25Z" />
<glyph unicode="u" glyph-name="u" horiz-adv-x="536" d="M470 660Q470 650 468 639T464 619Q462 608 460 599T458 580Q458 487 461 394T481 206Q486 170 493 136T509 67L511 61V63Q514 56 516 49T519 33Q519 22 514 15T500 4T483 -1T465 -2Q432 -2 413 5T381
26T364 59T354 101L351 119Q347 133 346 149Q345 157 345 157T343 164Q329 139 311 111T269 58T218 17T160 0Q117 0 94 26T59 89T46 167T44 238Q44 352 51 464T68 689Q68 692 68 697T69 705Q70 719 71 731T76 754V753Q80 769 87 776T111 783Q126 783 141 778T168
763T187 740T195 711Q195 703 195 692T194 673Q194 666 194 656T193 638Q185 542 181 448T177 256Q177 229 177 202T183 148Q216 190 240 255T280 394T307 540T323 669Q323 672 323 676T324 683Q325 694 326 704T333 723Q333 732 334 742T339 760T350 774T372 779Q412
779 435 755T460 692Q465 684 467 677T470 660Z" />
<glyph unicode="v" glyph-name="v" horiz-adv-x="445" d="M418 725Q418 587 397 453T345 186Q341 173 340 164Q334 135 328 105T307 44Q294 19 272 1T222 -18Q211 -18 199 -13T173 0Q153 14 143 38T126 89L124 96V95Q107 160 96 225T73 356Q67 397 61 437T47 518L33
577Q28 597 23 620T12 665T4 702T1 725Q1 744 13 750T42 757Q74 757 98 743T134 697Q140 680 144 661T152 623Q169 557 184 484T211 342L220 291Q221 286 221 283T221 278T222 273T224 264Q246 370 261 476T276 691Q276 713 274 734T268 778Q265 799 263 821T260
867Q260 888 273 896T305 904Q328 904 347 901T380 890T403 866T415 825Q417 802 417 776T418 725Z" />
<glyph unicode="w" glyph-name="w" horiz-adv-x="653" d="M403 632Q403 624 403 617T401 602Q416 548 428 494T453 385Q459 446 463 507T468 630Q468 690 464 752T444 872L440 886Q438 891 437 897T436 909Q436 920 441 926T455 936T473 940T491 941Q516 941 543
935Q561 930 572 921T588 898T596 870T599 838Q599 836 599 834T600 830Q605 786 607 742T610 654Q610 520 595 387T557 123Q554 103 549 82T533 43T507 14T467 2Q440 2 423 14T396 46T380 90T372 137Q370 148 369 157T365 174L337 298Q329 270 316 228T287 142T256
64T230 16Q219 3 202 -4T168 -12Q138 -12 116 7Q96 27 90 53T81 105Q81 107 81 110T80 115Q65 225 58 338T51 565V731Q51 740 52 750T56 768T67 782T89 787Q126 787 150 765T177 707Q180 659 181 610T184 513Q185 458 185 407T192 298Q204 337 215 379T234 464T248
549T254 632Q254 637 254 640T253 649Q252 654 252 659T252 669Q252 694 263 706T301 718Q311 718 325 715T354 706T381 691T397 671H396Q401 661 402 652T403 632Z" />
<glyph unicode="x" glyph-name="x" horiz-adv-x="465" d="M474 35Q474 23 466 17T446 7T423 3T404 2Q389 2 377 3T355 8T335 20T317 42Q300 73 286 106T257 171Q250 189 246 200T233 228Q211 171 189 117T142 9Q135 -5 127 -18T97 -32Q86 -32 71 -26T41 -9T16
15T5 41Q5 51 9 61T18 82H17Q55 164 88 243T155 404Q148 420 136 453T108 526T77 610T49 692T28 760T19 802Q19 822 31 827T60 833Q92 833 115 820T152 776Q157 763 162 749T172 720L181 695Q193 663 202 637T226 580Q251 644 272 712T304 850L307 877Q307 891
311 907Q316 921 322 928T346 935Q362 935 377 930T404 916T423 893T431 861Q431 833 425 796T407 717T383 631T355 546T327 468T303 404L364 275Q382 237 401 196T437 121T463 62T474 35Z" />
<glyph unicode="y" glyph-name="y" horiz-adv-x="493" d="M438 -68Q438 -109 435 -154T425 -244T406 -334T376 -416Q346 -472 301 -514T201 -586T86 -630T-37 -645Q-46 -645 -58 -644T-83 -640T-103 -628T-111 -606Q-111 -600 -108 -594Q-108 -592 -108 -591T-107
-588Q-100 -568 -91 -556T-71 -538T-44 -529T-8 -524Q56 -521 113 -494V-495Q178 -463 215 -416T272 -311T297 -189T302 -60Q302 -45 302 -38T302 -26T302 -13T301 9Q266 -18 228 -18Q184 -18 154 6T103 70T71 160T54 263T47 366T45 455V497Q45 550 45 601T49 703V718Q49
730 49 742T51 765Q55 781 62 788T87 795Q95 795 102 794T118 791Q137 783 148 775T164 755T171 728T173 693V559Q173 535 173 500T176 422T181 335T190 248T204 171T224 113Q242 152 255 204T276 317T289 442T296 567T299 682T300 778Q300 788 300 799T305 820T316
836T339 842Q346 842 354 840T369 836Q371 836 373 836T378 835Q392 830 405 825T427 813T442 793T448 762Q448 739 448 710T446 648T442 586T438 531L434 496Q432 482 431 468T430 442Q430 378 431 315T434 187Q436 123 437 60T438 -68Z" />
<glyph unicode="z" glyph-name="z" horiz-adv-x="458" d="M465 112Q465 94 450 79T412 53T359 32T301 18T250 9T213 6Q188 6 160 10T105 22T54 44T13 77V76Q5 84 -2 95T-10 120Q-10 129 -3 136T13 146Q23 170 34 194T56 241L71 276Q124 380 169 482T260 693L220
691L171 688L138 684Q124 682 112 681T86 680Q48 680 48 717Q48 734 52 747T67 772Q72 778 93 783T144 793T206 802T271 809T326 813T361 815Q379 815 394 810T410 780Q410 766 403 750T388 720Q390 715 390 705Q390 694 382 668T361 605T329 523T292 431T252 337T214
249L158 119Q175 115 197 115Q242 115 282 132T352 166Q369 175 382 181T403 188Q416 188 427 181T447 162T460 137T465 112Z" />
<glyph unicode="{" glyph-name="braceleft" horiz-adv-x="502" d="M561 -48Q561 -71 542 -87T495 -112T440 -126T395 -130Q347 -130 299 -115T213 -66Q183 -41 166 -12T139 49T128 115T125 188Q123 262 122 336T115 484Q113 500 112 517T108 551T100 584T85 614Q74
611 63 609T41 606Q12 606 4 619T-5 658Q-5 687 4 703T26 730T55 748T84 769T106 804T115 866Q115 915 101 963T68 1059T36 1158T21 1264Q21 1316 37 1359T84 1433T157 1481T253 1498Q265 1498 290 1494T342 1482T387 1462T407 1434Q407 1421 394 1412T362 1396T326
1387T297 1384Q288 1384 279 1385T261 1386Q211 1386 189 1357T167 1280Q167 1224 183 1171T218 1066T254 961T271 852Q271 802 253 757T199 676Q229 641 244 587T265 471T271 343T273 218T281 113T307 42Q322 22 343 11T391 0Q410 0 425 6T452 19T476 32T499 38Q512
38 523 29T543 7T556 -22T561 -48Z" />
<glyph unicode="|" glyph-name="bar" horiz-adv-x="293" d="M238 1008Q238 862 234 717T224 427T215 138T210 -152Q210 -176 202 -194T164 -212Q149 -212 130 -207T96 -196Q67 -184 57 -168T46 -120Q46 -111 46 -102T48 -82Q54 67 59 216T72 514Q80 671 85 825T90
1136Q90 1207 90 1277T88 1418Q86 1466 84 1514T82 1610Q82 1631 88 1641T118 1652Q131 1652 146 1649T175 1638T200 1621T216 1596Q220 1582 223 1540T228 1439T233 1315T236 1188T237 1079T238 1008Z" />
<glyph unicode="}" glyph-name="braceright" horiz-adv-x="510" d="M515 710Q515 680 507 664T485 638T456 620T428 599T406 564T397 502Q397 452 411 405T443 309T474 210T489 104Q489 51 473 8T426 -65T352 -113T257 -130Q245 -130 220 -126T169 -114T124 -95T105
-68Q105 -55 118 -46T149 -30T185 -21T213 -18H251Q299 -18 321 11T343 88Q343 144 327 197T291 302T255 407T239 516Q239 566 257 610T311 690Q281 725 267 779T246 896T240 1025T237 1150T229 1255T203 1326Q189 1346 167 1357T121 1368Q101 1368 86 1362T59
1349T35 1336T11 1330Q-2 1330 -13 1339T-32 1361T-46 1390T-51 1416Q-51 1439 -32 1455T15 1480T70 1494T115 1498Q165 1498 212 1483T297 1434Q327 1408 344 1379T371 1318T383 1252T387 1180Q389 1105 389 1032T395 884Q396 868 397 851T402 817T410 784T425
754Q437 757 448 759T471 762Q498 762 506 748T515 710Z" />
<glyph unicode="~" glyph-name="asciitilde" horiz-adv-x="464" d="M445 754Q445 720 437 687T410 626T364 583T297 566Q242 566 217 594T181 664T167 752T155 836Q152 842 149 852T137 862Q128 862 123 856T116 841T114 823T113 808Q113 779 118 751T131 694Q134
682 140 665T147 636Q147 619 135 615T109 610Q82 610 67 626T43 666Q31 701 24 738T17 814Q17 842 23 868T44 914T81 947T135 960Q169 960 191 948T227 915T248 868T260 813T267 756T275 704Q277 695 280 683T297 670Q310 670 318 679T330 701T336 728T337 752Q337
791 327 819T305 867T283 901T273 926Q273 935 281 942T300 956T323 965T343 968Q371 968 390 943T422 883T439 812T445 754Z" />
<glyph unicode="&#xa0;" glyph-name="nbspace" horiz-adv-x="300" />
<glyph unicode="&#xa1;" glyph-name="exclamdown" horiz-adv-x="347" d="M223 924Q223 913 216 908T199 900T177 898T159 898Q149 898 136 898T110 902T90 913T81 934Q81 938 81 955T82 991T84 1025T87 1042Q93 1053 106 1054T131 1056Q161 1056 176 1053T197
1040T206 1015T213 974Q215 962 219 950T223 924ZM273 -380Q273 -401 268 -412T237 -424Q223 -424 209 -421T181 -411T157 -395T141 -372Q138 -365 134 -320T124 -204T114 -45T104 138T93 327T84 501T76 641T69 728Q69 736 68 744T67 760Q67 802 107 802Q119 802
136 800T172 792T204 778T225 758Q233 744 233 729T233 696Q239 474 248 255T267 -188Q269 -236 271 -284T273 -380Z" />
<glyph unicode="&#xa2;" glyph-name="cent" horiz-adv-x="483" d="M331 42Q331 22 323 15T295 8Q284 8 267 10T234 17T206 31T191 54Q189 65 189 75T189 96Q189 134 190 171T193 246Q142 269 113 318T70 426T53 546T49 654Q49 686 50 727T55 812T70 899T99 977T146
1038T215 1072Q211 1096 208 1123T201 1179T197 1236T195 1288Q195 1308 206 1314T235 1320Q253 1320 271 1316T307 1306Q322 1300 328 1287T335 1258T336 1226T335 1196Q335 1161 335 1127T333 1060Q351 1052 371 1036T408 999T436 956T447 912Q447 895 437 890T413
884Q375 884 355 899T320 933T291 966T253 982Q238 982 230 970T215 946Q200 916 192 885T181 821T178 757T177 692Q177 656 177 619T181 546T191 474T211 404Q214 396 220 384T236 362T255 344T275 336Q288 336 296 348T309 376T315 409T317 436Q317 445 315 454T313
474Q313 491 324 497T351 504Q368 504 386 502T420 492T445 471T455 436Q455 401 447 368T422 307T377 261T313 234Q316 219 316 203T317 170Q320 138 325 107T331 42Z" />
<glyph unicode="&#xa3;" glyph-name="sterling" horiz-adv-x="562" d="M540 416Q540 376 521 349T472 304T407 280T338 272Q299 272 260 276T182 280H168Q159 268 146 252T116 236Q107 236 97 242T78 258T64 278T58 298Q58 305 63 314T75 334T90 353T102 370Q132
418 144 476T156 592Q156 610 155 629T152 666Q138 664 126 663T100 662Q76 662 76 686Q76 703 80 713T94 730T115 739T142 746Q135 782 125 818T106 891T91 963T84 1036Q84 1080 98 1115T137 1174T198 1211T278 1224Q344 1224 384 1190T444 1096Q449 1082 452
1069T456 1042Q456 1028 450 1019T428 1010Q403 1010 389 1020T365 1045T349 1078T334 1111T313 1136T278 1146Q231 1146 210 1116T188 1042Q188 1007 194 972T210 901T229 831T246 762Q272 767 300 773T354 780Q372 780 378 771T384 744Q384 719 377 707T358 690T330
683T294 680L260 678Q266 630 266 584Q266 525 255 468T218 358Q245 358 271 356T324 354Q337 354 355 355T389 363T417 379T428 408Q428 420 424 432T415 455T406 475T402 492Q402 501 407 507T421 516T438 520T454 522Q479 522 495 514T522 491T536 457T540 416Z"
/>
<glyph unicode="&#xa4;" glyph-name="currency" horiz-adv-x="478" d="M292 750Q277 776 263 791T218 806Q185 806 163 784T140 728Q140 714 145 700T160 676T182 659T210 652Q240 652 252 663T268 689T276 721T292 750ZM394 982Q394 971 380 937T347 861Q372
831 385 791T398 708Q398 683 391 660T373 616Q389 589 404 563T431 514T450 475T458 454Q458 443 451 437T433 428T411 425T392 424H378Q355 425 341 432T318 450T301 477T284 510Q281 515 278 520T273 532Q247 522 216 522Q199 522 184 525L164 484Q156 467 149
450T124 424Q121 421 117 421T110 420Q99 420 85 426T58 443T37 467T28 492Q28 512 39 530T60 566Q64 572 67 578T74 592Q53 619 42 653T30 724Q30 764 43 800T82 865Q70 886 59 905T39 941T25 969T20 984Q20 992 25 997T39 1005T55 1009T70 1010Q93 1010 111 1004T144
980Q155 967 165 952T185 921Q198 924 214 924Q231 924 246 921L270 968Q274 976 279 989T292 1014T309 1035T330 1044Q340 1044 351 1038T372 1023T388 1003T394 982Z" />
<glyph unicode="&#xa5;" glyph-name="yen" horiz-adv-x="505" d="M320 756Q338 758 357 758T394 758Q400 758 410 758T420 750Q420 747 419 743T416 734Q408 713 401 707T370 700H298Q301 682 302 663T306 626Q330 626 352 627T398 628Q403 628 413 627T424 618Q424
607 414 591T392 572Q386 569 380 569T368 568Q353 568 340 569T312 572Q315 500 320 428T326 284Q326 273 320 271T306 268Q301 268 291 269T269 273T248 279T234 286Q228 291 226 296T224 310Q224 376 223 441T222 572Q201 570 180 570T138 570Q133 570 125 570T116
576Q116 595 127 604T155 616T190 619T220 620V700H164Q161 700 153 700T137 701T123 703T116 708Q116 721 124 729T143 741T167 747T190 750Q158 819 131 889T72 1028Q67 1038 59 1055T42 1090T27 1125T20 1150Q20 1156 27 1156T40 1156Q60 1156 80 1156T120 1146Q123
1144 133 1121T157 1062T186 986T215 908T239 841T254 802Q284 894 315 985T366 1170Q368 1179 369 1186T376 1202Q381 1210 392 1210Q399 1210 411 1209T436 1203T458 1193T468 1178Q468 1163 459 1132T436 1059T405 973T371 885T341 808T320 756Z" />
<glyph unicode="&#xa6;" glyph-name="brokenbar" horiz-adv-x="286" d="M228 900Q228 886 228 872T224 846T211 827T182 820Q163 820 143 824T105 839T77 864T66 902Q66 974 69 1046T72 1190Q72 1278 70 1364T68 1540Q68 1550 68 1559T72 1576T82 1588T104 1592Q114
1592 128 1589T155 1581T180 1567T196 1548Q202 1535 206 1489T215 1380T221 1243T225 1102T227 980T228 900ZM228 -94Q228 -121 215 -130T178 -140Q168 -140 154 -138T125 -131T98 -121T78 -108Q66 -94 64 -79T62 -46Q60 -14 60 17T60 80V178Q60 195 60 237T60
333T61 445T63 554T65 641T70 686Q73 700 80 704T102 708Q147 708 174 684T204 614Q212 466 212 319T220 24Q222 -6 225 -35T228 -94Z" />
<glyph unicode="&#xa7;" glyph-name="section" horiz-adv-x="708" d="M341 1000Q330 984 321 971T304 943T292 913T287 876Q287 838 301 805T337 741T387 685T441 636Q459 662 467 691T475 752Q475 789 465 824T436 890T394 949T341 1000ZM677 246Q677 173 652
116T583 20T478 -41T347 -62Q279 -62 223 -43T128 12T67 102T45 226Q45 242 47 268T54 322T65 375T79 414Q87 426 94 432T117 438Q130 438 149 432T184 415T213 389T225 358Q225 344 222 328T215 293T208 254T205 214Q205 142 240 102T351 62Q395 62 428 76T483
115T516 176T527 254Q527 286 521 316T501 376Q486 408 462 433T413 482Q371 521 324 564T238 655T173 757T147 874Q147 928 170 978T233 1066Q195 1086 158 1112T92 1171T45 1243T27 1330Q27 1386 51 1429T115 1501T203 1545T303 1560Q370 1560 420 1539T504 1478T554
1386T571 1268Q571 1257 570 1241T568 1206T564 1172T557 1148Q552 1137 546 1133T527 1128Q513 1128 498 1133T470 1147T446 1168T433 1194Q431 1202 431 1209T431 1224Q431 1259 430 1298T416 1370T379 1424T305 1446Q281 1446 258 1438T216 1415T187 1379T175
1332Q175 1305 186 1281T216 1237T257 1201T303 1174Q373 1138 435 1096T547 990Q586 937 609 875T633 746Q633 686 613 632T551 532Q580 501 603 469T643 402T668 328T677 246Z" />
<glyph unicode="&#xa8;" glyph-name="dieresis" horiz-adv-x="342" d="M-30 1308Q-30 1318 -23 1323T-6 1331T15 1334T34 1334Q44 1334 57 1334T83 1330T103 1319T112 1298Q112 1293 112 1277T111 1241T110 1207T108 1190Q100 1179 88 1178T64 1176Q33 1176 18
1179T-4 1191T-12 1216T-18 1258Q-21 1270 -25 1282T-30 1308ZM230 1308Q230 1318 237 1323T254 1331T275 1334T294 1334Q304 1334 317 1334T343 1330T363 1319T372 1298Q372 1293 372 1277T371 1241T370 1207T368 1190Q360 1179 348 1178T324 1176Q293 1176 278
1179T256 1191T248 1216T242 1258Q239 1270 235 1282T230 1308Z" />
<glyph unicode="&#xa9;" glyph-name="copyright" horiz-adv-x="688" d="M564 780Q561 803 558 825T550 868Q542 905 526 948T484 1029T423 1092T344 1118Q310 1118 280 1100Q239 1077 211 1035T166 944T140 843T132 748Q132 704 141 648T169 539T220 442T298 380Q309
375 320 374T342 372Q365 372 385 380T424 402T456 433T482 468Q523 531 536 602T550 746Q550 757 551 766T564 780ZM346 264Q291 264 246 286T166 346T106 431T63 532T38 638T30 736Q30 782 37 835T61 942T102 1045T162 1132T242 1193T344 1216Q397 1216 441 1194T520
1135T580 1050T623 949T649 842T658 740Q658 686 649 630T621 522T576 422T514 340T437 285T346 264ZM508 616Q508 598 501 581T484 546Q464 508 432 480T356 452Q318 452 291 468T244 511T212 572T192 642T183 713T180 776Q180 821 187 866T214 952Q224 974 240
995T276 1033T320 1060T370 1070Q394 1070 417 1059T460 1029T490 987T502 938Q502 916 478 916Q452 916 440 927T418 953T400 978T372 990Q363 990 354 987T336 978Q313 964 299 941T277 892T265 838T262 786Q262 765 265 724T279 642T307 571T354 540Q379 540
391 560T410 606T423 651T446 672Q456 672 467 667T487 655T502 637T508 616Z" />
<glyph unicode="&#xaa;" glyph-name="ordfeminine" horiz-adv-x="428" d="M241 1220Q221 1192 206 1166T180 1112T160 1057T143 996Q137 975 132 955T127 914V896Q152 919 170 960T202 1047T225 1140T241 1220ZM413 824Q413 814 405 808T385 799T361 795T341 794Q316
794 303 809T283 847T274 893T271 936Q260 913 245 890T211 848T168 816T117 804Q93 804 76 813T48 839T32 875T27 916Q27 969 41 1022T80 1126T134 1223T197 1310Q203 1317 211 1327T228 1346T248 1361T269 1368Q281 1368 290 1358T305 1336Q309 1338 317 1338Q337
1338 350 1331T370 1312T380 1285T383 1252Q383 1213 380 1175T377 1098Q377 1045 378 990T391 882Q392 877 396 869T403 851T410 835T413 824ZM405 722Q405 710 401 699T391 678Q379 661 361 659T325 654Q283 651 243 646T161 636Q135 633 109 629T57 624Q45 624
35 629T25 648Q25 656 27 658Q31 673 38 682T56 696T79 703T105 708Q158 717 209 726T313 744Q327 746 341 749T369 752Q386 752 395 746T405 722Z" />
<glyph unicode="&#xab;" glyph-name="guillemotleft" horiz-adv-x="568" d="M303 102Q303 91 292 84T265 72T234 65T211 62Q202 62 194 63T177 70Q167 75 148 98T109 150T70 205T45 244Q28 268 12 296T-5 354Q-5 367 0 380T14 405T32 429T49 452L135 582Q140 590
147 602T163 626T182 646T203 654Q213 654 223 648T241 633T255 612T261 590Q261 583 253 565T231 524T201 473T170 422T143 379T125 350Q148 302 184 257T253 170Q265 156 276 144T299 116Q303 108 303 102ZM563 102Q563 91 552 84T525 72T494 65T471 62Q462 62
454 63T437 70Q427 75 408 98T369 150T330 205T305 244Q288 268 272 296T255 354Q255 367 260 380T274 405T292 429T309 452L395 582Q400 590 407 602T423 626T442 646T463 654Q473 654 483 648T501 633T515 612T521 590Q521 583 513 565T491 524T461 473T430 422T403
379T385 350Q408 302 444 257T513 170Q525 156 536 144T559 116Q563 108 563 102Z" />
<glyph unicode="&#xac;" glyph-name="logicalnot" horiz-adv-x="493" d="M438 604Q438 595 437 576T435 536T431 497T426 472Q416 456 400 456Q387 456 374 461T349 476T330 498T322 524Q322 550 327 574T332 624Q332 632 331 639T328 654Q263 649 198 645T66
640Q52 640 40 644T28 666Q28 678 33 691T46 714Q57 728 73 731T106 736Q159 742 211 746T316 756Q324 756 332 757T348 758Q378 758 396 743T423 704T435 654T438 604Z" />
<glyph unicode="&#xad;" glyph-name="uni00AD" horiz-adv-x="436" d="M426 774Q426 760 420 748Q414 731 409 720T395 703T376 695T346 692H74Q67 692 57 692T36 695T18 703T10 720Q10 744 27 762T68 786Q88 789 108 789T148 792Q205 795 262 798T378 802Q385
802 393 802T409 799T421 790T426 774Z" />
<glyph unicode="&#xae;" glyph-name="registered" horiz-adv-x="676" d="M340 306Q283 306 234 334T146 404Q115 440 93 482T57 569T37 662T30 756Q30 801 37 852T61 955T101 1053T160 1137T239 1194T338 1216Q389 1216 431 1197T508 1143T567 1065T610 969T635
865T644 760Q644 672 622 590T560 445T464 344T340 306ZM236 1072Q247 1074 258 1074T280 1074Q319 1074 356 1065T422 1035T468 984T486 908Q486 876 476 848T448 795T406 751T354 716Q390 677 427 637T500 558Q511 584 518 607T528 653T533 699T534 750Q534 764
537 777T552 798Q550 806 550 812T548 824Q544 851 537 883T518 949T489 1012T450 1067T401 1105T340 1120Q308 1120 283 1107T236 1072ZM282 994Q294 970 294 942Q294 925 292 909T290 876Q288 852 288 829T288 782Q309 790 329 801T366 828T393 863T404 908Q404
933 393 949T363 975T324 989T282 994ZM310 486Q310 460 282 460Q262 460 244 466Q226 474 221 486T212 518Q206 577 205 636T204 754L202 756H204Q206 815 208 873T218 990Q207 988 197 986T178 980Q157 933 145 876T132 768Q132 739 136 702T151 626T178 548T216
481T268 433T336 414Q372 414 401 431T452 476Q437 488 426 504T400 536Q373 566 346 596T292 658Q294 626 295 595T302 532Q304 521 307 510T310 486Z" />
<glyph unicode="&#xaf;" glyph-name="overscore" horiz-adv-x="340" d="M370 1206Q370 1168 353 1146T296 1124Q231 1124 168 1125T40 1126Q32 1126 20 1126T-3 1128T-22 1135T-30 1152Q-30 1170 -20 1190T8 1216Q13 1218 36 1221T91 1226T160 1231T230 1234T290
1237T326 1238Q344 1238 357 1233T370 1206Z" />
<glyph unicode="&#xb0;" glyph-name="degree" horiz-adv-x="358" d="M363 1198Q363 1161 349 1128T310 1069T252 1028T181 1012Q140 1012 106 1028T47 1073T9 1137T-5 1214Q-5 1253 8 1289T46 1353T104 1397T179 1414Q224 1414 258 1396T316 1347T351 1278T363
1198ZM257 1240Q242 1266 228 1281T183 1296Q150 1296 128 1274T105 1218Q105 1204 110 1190T125 1166T147 1149T175 1142Q205 1142 217 1153T233 1179T241 1211T257 1240Z" />
<glyph unicode="&#xb1;" glyph-name="plusminus" horiz-adv-x="550" d="M339 400Q339 380 323 375T291 370Q246 370 220 385T193 452V650Q161 648 129 648T63 648Q51 648 39 653T27 674Q27 702 46 717T91 738T146 745T195 748Q196 771 196 806T195 877T196 946T203
1000Q206 1014 213 1020T235 1026Q270 1026 287 1011T311 974T318 924T319 872L321 756Q360 759 400 761T479 764Q496 764 509 759T523 734Q523 720 516 704T501 676Q487 656 465 654T423 652L323 650Q323 593 324 535T337 420Q337 415 338 411T339 400ZM483 234Q483
220 477 208Q471 191 466 180T452 163T433 155T403 152H131Q124 152 114 152T93 155T75 163T67 180Q67 204 84 222T125 246Q145 249 165 249T205 252Q262 255 319 258T435 262Q442 262 450 262T466 259T478 250T483 234Z" />
<glyph unicode="&#xb2;" glyph-name="twosuperior" horiz-adv-x="348" d="M331 652Q331 633 323 620Q318 609 306 604T279 597T250 595T225 594Q201 594 177 592T129 588Q117 576 99 576Q90 576 78 579T53 589T33 605T25 626Q25 638 31 649T43 672Q55 697 73 735T110
817T149 908T183 999T207 1082T217 1148Q217 1157 217 1170T213 1195T204 1215T185 1224Q168 1224 154 1212T128 1184T109 1148T97 1116Q92 1102 86 1093T63 1084Q52 1084 41 1087T20 1096T4 1111T-3 1132Q-3 1147 3 1160T17 1188Q43 1239 85 1270T187 1302Q224
1302 250 1290T292 1257T317 1207T325 1144Q325 1091 308 1030T266 905T214 782T165 670Q198 675 231 679T297 684Q312 684 321 677T331 652Z" />
<glyph unicode="&#xb3;" glyph-name="threesuperior" horiz-adv-x="398" d="M389 836Q389 788 378 741T342 655T278 594T183 570Q153 570 122 580T66 608T25 653T9 714Q9 731 19 738T45 746Q75 746 92 739T118 722T132 700T142 678T156 661T185 654Q213 654 231
676T261 728T276 791T281 846Q281 865 278 885T266 922T242 949T201 958Q190 947 178 936T151 924Q140 924 129 928T109 940T95 958T89 980Q89 991 109 1012T155 1061T200 1123T221 1194Q221 1244 171 1244Q142 1244 133 1229T120 1196T110 1163T83 1148Q72 1148
61 1150T39 1159T22 1174T15 1196Q15 1226 30 1249T68 1288T119 1312T173 1320Q203 1320 231 1313T282 1290T317 1250T331 1192Q331 1145 311 1104T261 1026Q295 1018 319 1000T359 956T382 900T389 836Z" />
<glyph unicode="&#xb4;" glyph-name="acute" horiz-adv-x="234" d="M-30 1162Q-30 1172 -22 1184T-2 1207T22 1227T42 1244L140 1334Q152 1343 165 1354T194 1366Q204 1366 216 1359T239 1341T257 1317T264 1294Q264 1292 264 1290T262 1286Q259 1274 250 1265T230
1248Q199 1223 183 1211T152 1188T121 1165T72 1130Q61 1122 51 1117T28 1112Q19 1112 9 1116T-10 1127T-24 1143T-30 1162Z" />
<glyph unicode="&#xb5;" glyph-name="mu" horiz-adv-x="626" d="M271 690Q271 652 263 612T249 534Q246 513 246 491T247 448Q247 415 248 374T253 290T263 208T281 138Q298 158 312 194T339 276T361 370T378 467T391 556T399 624Q400 642 401 660T407 693T423
719T457 736Q462 738 467 738T479 738Q509 738 528 721T551 672Q554 640 554 607T553 540Q553 484 552 428T551 314Q551 260 554 205T571 96Q574 84 578 72T583 46Q583 28 568 22T537 16Q499 16 478 23T446 46T432 85T425 142Q414 122 399 98T365 54T323 20T275
6Q249 6 230 18T195 48Q189 -63 189 -178Q189 -250 194 -323T199 -470Q199 -487 185 -491T157 -496Q148 -496 135 -494T108 -488T83 -477T65 -462Q61 -455 59 -438T56 -402T55 -364T55 -338Q55 -187 61 -40T85 256Q91 304 98 353T113 450Q118 473 122 496T129 542Q130
560 131 586T133 641T135 694T141 734Q147 752 156 756T183 758Q187 760 195 760Q224 760 247 740T271 690Z" />
<glyph unicode="&#xb6;" glyph-name="paragraph" horiz-adv-x="801" d="M494 1282Q498 1251 500 1214T502 1137T502 1060T502 990Q504 892 505 785T508 580Q525 582 540 586T572 594Q569 671 567 758T563 934T561 1110T560 1274Q543 1277 527 1279T494 1282ZM386
580Q386 659 386 747T387 925T388 1102T386 1268V1278Q325 1269 279 1231T202 1139T154 1023T138 902Q138 843 155 790T203 693T281 620T386 580ZM514 26Q514 8 508 -7T478 -22Q466 -22 451 -17T424 -6Q398 8 391 25T384 72Q384 112 384 161T384 262T384 362T386
452Q303 464 236 503T120 602T45 736T18 894Q18 958 34 1029T81 1166T159 1283T266 1364Q307 1384 353 1391T444 1398Q489 1398 534 1392Q543 1390 561 1387T600 1379T644 1367T685 1352T716 1335T728 1316Q728 1306 723 1298T709 1282T690 1269T672 1260Q676 1151
679 1033T687 795T696 558T708 332Q709 306 711 270T715 197T719 124T726 62Q728 51 729 41T730 20Q730 -1 717 -8T686 -16Q666 -16 642 -9T606 16Q598 27 595 42T591 74T590 107T590 138Q588 170 587 212T584 298T581 384T578 460Q561 454 545 452T510 448Q511
403 511 349T512 237T513 126T514 26Z" />
<glyph unicode="&#xb7;" glyph-name="middot" horiz-adv-x="232" d="M41 708Q41 718 48 723T65 731T86 734T105 734Q115 734 128 734T154 730T174 719T183 698Q183 693 183 677T182 641T181 607T179 590Q171 579 159 578T135 576Q104 576 89 579T67 591T59 616T53
658Q50 670 46 682T41 708Z" />
<glyph unicode="&#xb8;" glyph-name="cedilla" horiz-adv-x="262" d="M292 -158Q292 -186 278 -208T242 -247T194 -271T144 -280Q114 -280 85 -271T28 -248Q22 -246 12 -241T-7 -230T-23 -216T-30 -202Q-30 -194 -22 -188T-2 -177T20 -170T38 -168Q51 -168 63
-172T87 -181T111 -190T136 -194Q150 -194 166 -186T182 -160Q182 -151 174 -148T156 -144Q145 -144 135 -146T114 -148Q84 -148 62 -130T40 -80Q40 -71 44 -48T55 2T69 50T82 78Q88 86 94 88T108 90Q118 90 131 85T156 72T176 52T184 30Q184 22 183 11T179 -12T173
-34T168 -50Q190 -53 212 -61T252 -83T281 -115T292 -158Z" />
<glyph unicode="&#xb9;" glyph-name="onesuperior" horiz-adv-x="202" d="M179 620Q179 602 166 596T139 590Q116 590 92 597T59 628Q57 637 57 646T57 664Q48 818 41 970T33 1276Q33 1291 40 1299T65 1308Q82 1308 102 1301T131 1276Q134 1271 135 1261T137 1241T137
1220T137 1202Q142 1074 148 946T171 690Q173 672 176 655T179 620Z" />
<glyph unicode="&#xba;" glyph-name="ordmasculine" horiz-adv-x="410" d="M155 1228Q143 1201 137 1165T131 1098Q131 1083 133 1051T143 986T162 929T195 904Q219 904 232 923T252 968T259 1023T261 1068Q261 1088 259 1114T252 1166T239 1215T217 1256Q212
1241 207 1232T183 1222Q170 1222 155 1228ZM369 1056Q369 1013 361 971T332 896T279 843T195 822Q147 822 115 846T64 907T37 987T29 1070Q29 1130 41 1191T89 1302Q93 1309 100 1318T115 1335T133 1348T151 1354Q163 1354 169 1348Q192 1358 213 1358Q233 1358
250 1351T283 1332Q312 1308 329 1275T355 1205T366 1130T369 1056ZM401 748Q401 688 345 682Q298 676 253 674T161 668Q137 666 113 664T63 662Q51 662 40 666T29 684Q29 711 47 723T89 740Q113 745 137 747T185 752Q230 758 276 767T369 776Q383 776 392 770T401
748Z" />
<glyph unicode="&#xbb;" glyph-name="guillemotright" horiz-adv-x="568" d="M313 362Q313 348 308 335T294 310T277 286T261 264L173 132Q168 124 161 113T146 90T127 70T107 62Q96 62 86 68T67 83T53 103T47 124Q47 131 55 149T77 192T107 243T138 294T165 337T183
366Q162 414 126 458T55 544Q44 559 32 572T11 600Q5 606 5 614Q5 624 16 632T43 644T75 651T99 654Q108 654 116 652T133 644Q143 639 161 616T200 565T239 511T265 472Q280 448 296 420T313 362ZM573 362Q573 348 568 335T554 310T537 286T521 264L433 132Q428
124 421 113T406 90T387 70T367 62Q356 62 346 68T327 83T313 103T307 124Q307 131 315 149T337 192T367 243T398 294T425 337T443 366Q422 414 386 458T315 544Q304 559 292 572T271 600Q265 606 265 614Q265 624 276 632T303 644T335 651T359 654Q368 654 376
652T393 644Q403 639 421 616T460 565T499 511T525 472Q540 448 556 420T573 362Z" />
<glyph unicode="&#xbc;" glyph-name="onequarter" horiz-adv-x="786" d="M217 620Q217 602 204 596T177 590Q154 590 130 597T97 628Q95 637 95 646T95 664Q86 818 79 970T71 1276Q71 1291 78 1299T103 1308Q120 1308 140 1301T169 1276Q172 1271 173 1261T175
1241T175 1220T175 1202Q180 1074 186 946T209 690Q211 672 214 655T217 620ZM569 1158Q569 1135 560 1113T541 1070Q461 860 387 651T241 230Q238 221 233 202T221 163T209 126T199 104Q192 94 179 94Q169 94 156 98T130 110T110 128T101 150Q101 159 112 195T143
286T188 409T240 549T294 692T344 823T384 928T409 994L461 1128Q467 1145 473 1162T487 1194Q492 1203 498 1209T515 1216Q538 1216 553 1198T569 1158ZM771 374Q771 351 762 339T739 320T708 313T673 310Q676 262 680 212T685 112Q685 95 678 89T653 82Q635 82
616 89T585 114Q582 120 579 146T573 204T568 264T565 304H525Q511 304 489 305T445 312T407 328T391 358Q391 370 399 399T422 467T452 549T484 632T512 704T531 752Q529 767 527 780T525 808Q525 826 538 832T567 838Q577 838 591 835T617 826T639 809T649 786Q649
784 648 782T647 776Q647 747 649 719T653 662L669 396Q686 398 702 400T735 402Q749 402 760 396T771 374ZM559 388L551 510Q539 480 528 449T509 386H519Q530 386 539 387T559 388Z" />
<glyph unicode="&#xbd;" glyph-name="onehalf" horiz-adv-x="799" d="M205 620Q205 602 192 596T165 590Q142 590 118 597T85 628Q83 637 83 646T83 664Q74 818 67 970T59 1276Q59 1291 66 1299T91 1308Q108 1308 128 1301T157 1276Q160 1271 161 1261T163 1241T163
1220T163 1202Q168 1074 174 946T197 690Q199 672 202 655T205 620ZM557 1158Q557 1135 548 1113T529 1070Q449 860 375 651T229 230Q226 221 221 202T209 163T197 126T187 104Q180 94 167 94Q157 94 144 98T118 110T98 128T89 150Q89 159 100 195T131 286T176
409T228 549T282 692T332 823T372 928T397 994L449 1128Q455 1145 461 1162T475 1194Q480 1203 486 1209T503 1216Q526 1216 541 1198T557 1158ZM773 152Q773 133 765 120Q760 109 748 104T721 97T692 95T667 94Q643 94 619 92T571 88Q559 76 541 76Q532 76 520
79T495 89T475 105T467 126Q467 138 473 149T485 172Q497 197 515 235T552 317T591 408T625 499T649 582T659 648Q659 657 659 670T655 695T646 715T627 724Q610 724 596 712T570 684T551 648T539 616Q534 602 528 593T505 584Q494 584 483 587T462 596T446 611T439
632Q439 647 445 660T459 688Q485 739 527 770T629 802Q666 802 692 790T734 757T759 707T767 644Q767 591 750 530T708 405T656 282T607 170Q640 175 673 179T739 184Q754 184 763 177T773 152Z" />
<glyph unicode="&#xbe;" glyph-name="threequarters" horiz-adv-x="958" d="M741 1158Q741 1135 732 1113T713 1070Q633 860 559 651T413 230Q410 221 405 202T393 163T381 126T371 104Q364 94 351 94Q341 94 328 98T302 110T282 128T273 150Q273 159 284 195T315
286T360 409T412 549T466 692T516 823T556 928T581 994L633 1128Q639 1145 645 1162T659 1194Q664 1203 670 1209T687 1216Q710 1216 725 1198T741 1158ZM943 374Q943 351 934 339T911 320T880 313T845 310Q848 262 852 212T857 112Q857 95 850 89T825 82Q807 82
788 89T757 114Q754 120 751 146T745 204T740 264T737 304H697Q683 304 661 305T617 312T579 328T563 358Q563 370 571 399T594 467T624 549T656 632T684 704T703 752Q701 767 699 780T697 808Q697 826 710 832T739 838Q749 838 763 835T789 826T811 809T821 786Q821
784 820 782T819 776Q819 747 821 719T825 662L841 396Q858 398 874 400T907 402Q921 402 932 396T943 374ZM731 388L723 510Q711 480 700 449T681 386H691Q702 386 711 387T731 388ZM413 836Q413 788 402 741T366 655T302 594T207 570Q177 570 146 580T90 608T49
653T33 714Q33 731 43 738T69 746Q99 746 116 739T142 722T156 700T166 678T180 661T209 654Q237 654 255 676T285 728T300 791T305 846Q305 865 302 885T290 922T266 949T225 958Q214 947 202 936T175 924Q164 924 153 928T133 940T119 958T113 980Q113 991 133
1012T179 1061T224 1123T245 1194Q245 1244 195 1244Q166 1244 157 1229T144 1196T134 1163T107 1148Q96 1148 85 1150T63 1159T46 1174T39 1196Q39 1226 54 1249T92 1288T143 1312T197 1320Q227 1320 255 1313T306 1290T341 1250T355 1192Q355 1145 335 1104T285
1026Q319 1018 343 1000T383 956T406 900T413 836Z" />
<glyph unicode="&#xbf;" glyph-name="questiondown" horiz-adv-x="640" d="M440 950Q440 939 433 934T416 926T394 924T374 924Q364 924 351 924T325 928T305 939T296 960Q296 964 296 981T298 1017T300 1051T302 1068Q310 1079 322 1080T346 1082Q376 1082 391
1079T412 1066T421 1041T428 1000Q430 988 435 976T440 950ZM608 -124Q608 -180 594 -234T550 -330T475 -398T366 -424Q279 -424 223 -388T134 -293T89 -163T76 -18Q76 62 84 143T122 300Q140 346 169 397T227 500T275 603T296 704V748Q296 775 305 792T344 810Q361
810 385 804T424 790Q448 778 455 762T462 718Q462 665 447 617T410 524T360 434T310 346Q262 258 244 161T226 -36Q226 -56 228 -84T237 -142T252 -202T277 -255T312 -293T360 -308Q393 -308 414 -287T448 -236T465 -173T470 -114Q470 -86 461 -57T441 -2T421
40T412 62Q412 72 420 78T440 87T464 92T484 94Q522 94 546 71T584 15T603 -57T608 -124Z" />
<glyph unicode="&#xc0;" glyph-name="Agrave" horiz-adv-x="742" d="M782 550Q782 529 767 506T734 472Q729 469 717 466T692 461T666 456T646 452L670 304Q681 235 686 166T712 28Q714 22 716 17T718 4Q718 -9 711 -16T693 -26T670 -31T648 -32H634Q603 -32 587
-27T561 -10T549 20T542 66Q518 249 488 432Q426 424 364 417T238 404L206 208Q204 190 201 159T193 96T183 35T170 -6Q164 -18 159 -23T140 -28Q122 -28 105 -22T74 -4T52 24T44 60Q44 80 48 100T56 140Q67 206 76 271T96 402Q89 403 80 405T63 412T48 422T42
436Q42 446 49 454T67 470T89 483T108 492Q129 632 148 771T182 1052Q186 1090 189 1129T195 1207T204 1284T220 1360Q229 1396 250 1418T312 1440Q324 1440 335 1438T356 1430Q382 1417 410 1359T466 1219T519 1040T566 854T602 692T624 584Q645 587 666 589T708
592Q718 592 731 591T755 586T774 573T782 550ZM468 558Q442 700 412 839T340 1118Q322 967 301 818T256 520Q310 528 362 537T468 558ZM286 1536Q286 1526 281 1517T266 1501T247 1490T228 1486Q216 1486 205 1491T184 1504Q152 1527 137 1538T111 1559T85 1581T40
1618Q31 1626 22 1635T8 1656V1664Q8 1674 14 1687T31 1710T54 1728T78 1736Q93 1736 106 1725T130 1704L214 1618Q221 1611 233 1602T257 1581T277 1558T286 1536Z" />
<glyph unicode="&#xc1;" glyph-name="Aacute" horiz-adv-x="742" d="M782 550Q782 529 767 506T734 472Q729 469 717 466T692 461T666 456T646 452L670 304Q681 235 686 166T712 28Q714 22 716 17T718 4Q718 -9 711 -16T693 -26T670 -31T648 -32H634Q603 -32 587
-27T561 -10T549 20T542 66Q518 249 488 432Q426 424 364 417T238 404L206 208Q204 190 201 159T193 96T183 35T170 -6Q164 -18 159 -23T140 -28Q122 -28 105 -22T74 -4T52 24T44 60Q44 80 48 100T56 140Q67 206 76 271T96 402Q89 403 80 405T63 412T48 422T42
436Q42 446 49 454T67 470T89 483T108 492Q129 632 148 771T182 1052Q186 1090 189 1129T195 1207T204 1284T220 1360Q229 1396 250 1418T312 1440Q324 1440 335 1438T356 1430Q382 1417 410 1359T466 1219T519 1040T566 854T602 692T624 584Q645 587 666 589T708
592Q718 592 731 591T755 586T774 573T782 550ZM468 558Q442 700 412 839T340 1118Q322 967 301 818T256 520Q310 528 362 537T468 558ZM272 1540Q272 1550 280 1562T300 1585T324 1605T344 1622L442 1712Q454 1721 467 1732T496 1744Q506 1744 518 1737T541 1719T559
1695T566 1672Q566 1670 566 1668T564 1664Q561 1652 552 1643T532 1626Q501 1601 485 1589T454 1566T423 1543T374 1508Q363 1500 353 1495T330 1490Q321 1490 311 1494T292 1505T278 1521T272 1540Z" />
<glyph unicode="&#xc2;" glyph-name="Acircumflex" horiz-adv-x="742" d="M782 550Q782 529 767 506T734 472Q729 469 717 466T692 461T666 456T646 452L670 304Q681 235 686 166T712 28Q714 22 716 17T718 4Q718 -9 711 -16T693 -26T670 -31T648 -32H634Q603
-32 587 -27T561 -10T549 20T542 66Q518 249 488 432Q426 424 364 417T238 404L206 208Q204 190 201 159T193 96T183 35T170 -6Q164 -18 159 -23T140 -28Q122 -28 105 -22T74 -4T52 24T44 60Q44 80 48 100T56 140Q67 206 76 271T96 402Q89 403 80 405T63 412T48
422T42 436Q42 446 49 454T67 470T89 483T108 492Q129 632 148 771T182 1052Q186 1090 189 1129T195 1207T204 1284T220 1360Q229 1396 250 1418T312 1440Q324 1440 335 1438T356 1430Q382 1417 410 1359T466 1219T519 1040T566 854T602 692T624 584Q645 587 666
589T708 592Q718 592 731 591T755 586T774 573T782 550ZM468 558Q442 700 412 839T340 1118Q322 967 301 818T256 520Q310 528 362 537T468 558ZM454 1516Q454 1508 448 1503T434 1496T417 1493T402 1492Q393 1492 383 1492T364 1498Q350 1504 345 1514T334 1536Q322
1568 310 1598T284 1658Q270 1623 256 1589T228 1520Q225 1511 222 1505T210 1492Q208 1490 200 1490Q192 1490 183 1494T165 1506T152 1522T146 1540Q146 1547 155 1575T177 1638T201 1704T218 1746Q227 1766 239 1777T276 1788Q304 1788 326 1766Q344 1748 356
1725T380 1678Q384 1670 396 1646T421 1594T444 1544T454 1516Z" />
<glyph unicode="&#xc3;" glyph-name="Atilde" horiz-adv-x="742" d="M782 550Q782 529 767 506T734 472Q729 469 717 466T692 461T666 456T646 452L670 304Q681 235 686 166T712 28Q714 22 716 17T718 4Q718 -9 711 -16T693 -26T670 -31T648 -32H634Q603 -32 587
-27T561 -10T549 20T542 66Q518 249 488 432Q426 424 364 417T238 404L206 208Q204 190 201 159T193 96T183 35T170 -6Q164 -18 159 -23T140 -28Q122 -28 105 -22T74 -4T52 24T44 60Q44 80 48 100T56 140Q67 206 76 271T96 402Q89 403 80 405T63 412T48 422T42
436Q42 446 49 454T67 470T89 483T108 492Q129 632 148 771T182 1052Q186 1090 189 1129T195 1207T204 1284T220 1360Q229 1396 250 1418T312 1440Q324 1440 335 1438T356 1430Q382 1417 410 1359T466 1219T519 1040T566 854T602 692T624 584Q645 587 666 589T708
592Q718 592 731 591T755 586T774 573T782 550ZM468 558Q442 700 412 839T340 1118Q322 967 301 818T256 520Q310 528 362 537T468 558ZM488 1600Q488 1550 458 1520T372 1490Q329 1490 305 1502T269 1534T252 1576T245 1617T236 1649T216 1662Q186 1662 186 1636Q186
1616 194 1595T211 1555T228 1522T236 1502Q236 1490 222 1486T198 1482Q172 1482 157 1492T130 1522Q116 1548 105 1575T94 1632Q94 1682 129 1707T218 1732Q257 1732 288 1714T332 1660Q334 1653 336 1637T342 1605T352 1575T370 1562Q375 1562 378 1566T382
1576T384 1587T384 1594Q384 1615 380 1636T368 1678Q365 1687 361 1694T356 1710Q356 1723 370 1727T396 1732Q424 1732 442 1720T470 1689T484 1647T488 1600Z" />
<glyph unicode="&#xc4;" glyph-name="Adieresis" horiz-adv-x="742" d="M782 550Q782 529 767 506T734 472Q729 469 717 466T692 461T666 456T646 452L670 304Q681 235 686 166T712 28Q714 22 716 17T718 4Q718 -9 711 -16T693 -26T670 -31T648 -32H634Q603 -32
587 -27T561 -10T549 20T542 66Q518 249 488 432Q426 424 364 417T238 404L206 208Q204 190 201 159T193 96T183 35T170 -6Q164 -18 159 -23T140 -28Q122 -28 105 -22T74 -4T52 24T44 60Q44 80 48 100T56 140Q67 206 76 271T96 402Q89 403 80 405T63 412T48 422T42
436Q42 446 49 454T67 470T89 483T108 492Q129 632 148 771T182 1052Q186 1090 189 1129T195 1207T204 1284T220 1360Q229 1396 250 1418T312 1440Q324 1440 335 1438T356 1430Q382 1417 410 1359T466 1219T519 1040T566 854T602 692T624 584Q645 587 666 589T708
592Q718 592 731 591T755 586T774 573T782 550ZM468 558Q442 700 412 839T340 1118Q322 967 301 818T256 520Q310 528 362 537T468 558ZM96 1624Q96 1634 103 1639T120 1647T141 1650T160 1650Q170 1650 183 1650T209 1646T229 1635T238 1614Q238 1609 238 1593T237
1557T236 1523T234 1506Q226 1495 214 1494T190 1492Q159 1492 144 1495T122 1507T114 1532T108 1574Q105 1586 101 1598T96 1624ZM356 1624Q356 1634 363 1639T380 1647T401 1650T420 1650Q430 1650 443 1650T469 1646T489 1635T498 1614Q498 1609 498 1593T497
1557T496 1523T494 1506Q486 1495 474 1494T450 1492Q419 1492 404 1495T382 1507T374 1532T368 1574Q365 1586 361 1598T356 1624Z" />
<glyph unicode="&#xc5;" glyph-name="Aring" horiz-adv-x="742" d="M782 550Q782 529 767 506T734 472Q729 469 717 466T692 461T666 456T646 452L670 304Q681 235 686 166T712 28Q714 22 716 17T718 4Q718 -9 711 -16T693 -26T670 -31T648 -32H634Q603 -32 587
-27T561 -10T549 20T542 66Q518 249 488 432Q426 424 364 417T238 404L206 208Q204 190 201 159T193 96T183 35T170 -6Q164 -18 159 -23T140 -28Q122 -28 105 -22T74 -4T52 24T44 60Q44 80 48 100T56 140Q67 206 76 271T96 402Q89 403 80 405T63 412T48 422T42
436Q42 446 49 454T67 470T89 483T108 492Q129 632 148 771T182 1052Q186 1090 189 1129T195 1207T204 1284T220 1360Q229 1396 250 1418T312 1440Q324 1440 335 1438T356 1430Q382 1417 410 1359T466 1219T519 1040T566 854T602 692T624 584Q645 587 666 589T708
592Q718 592 731 591T755 586T774 573T782 550ZM468 558Q442 700 412 839T340 1118Q322 967 301 818T256 520Q310 528 362 537T468 558ZM348 1608Q337 1620 329 1625T304 1630Q289 1630 272 1621T254 1594Q254 1577 268 1569T298 1560Q317 1560 324 1565T335 1578T339
1594T348 1608ZM442 1584Q442 1558 429 1539T394 1507T349 1487T302 1480Q278 1480 253 1487T206 1508T172 1543T158 1592Q158 1619 171 1639T205 1674T251 1695T300 1702Q327 1702 352 1695T398 1672T430 1635T442 1584Z" />
<glyph unicode="&#xc6;" glyph-name="AE" horiz-adv-x="1164" d="M1187 218Q1187 201 1174 185T1142 154T1104 127T1071 106Q1036 84 1003 65T934 32T861 10T781 2L767 0Q701 -1 658 18T590 69T552 145T535 236T530 334T527 432Q458 429 389 420T249 404L181 208Q175
189 166 159T147 96T126 36T105 -6Q97 -17 91 -22T71 -28Q39 -28 15 -9T-9 44Q-9 51 -2 77T17 138T42 215T69 293T92 360T107 402Q92 405 76 411T59 436Q59 444 68 453T90 470T115 484T135 492Q182 632 226 771T313 1052Q335 1128 353 1207T405 1360Q422 1395 446
1417T513 1440Q549 1440 564 1424T591 1376Q617 1385 644 1387T699 1390Q765 1390 831 1389T963 1388Q983 1388 1002 1389T1043 1386Q1055 1384 1064 1380T1073 1360Q1073 1330 1057 1313T1016 1288T965 1278T915 1276Q870 1276 825 1277T735 1278Q714 1278 695
1278T655 1276Q649 1261 647 1245T645 1212Q645 1103 651 997T663 782Q725 787 786 794T907 810Q915 810 922 811T939 812Q960 812 968 801T977 770Q977 756 976 744T969 720Q961 700 945 691T909 678T868 674T829 674L667 668Q668 647 670 605T674 511T680 402T688
296T696 209T707 160Q718 139 731 133T767 126Q805 126 846 140T926 177T1000 227T1063 280Q1072 289 1084 298T1111 308Q1125 308 1139 300T1163 278T1180 248T1187 218ZM507 558V606Q507 734 502 862T481 1118Q436 967 388 818T289 520Q343 528 398 537T507 558Z"
/>
<glyph unicode="&#xc7;" glyph-name="Ccedilla" horiz-adv-x="810" d="M596 -158Q596 -186 582 -208T546 -247T498 -271T448 -280Q418 -280 389 -271T332 -248Q326 -246 316 -241T297 -230T281 -216T274 -202Q274 -194 282 -188T302 -177T324 -170T342 -168Q355
-168 367 -172T391 -181T415 -190T440 -194Q454 -194 470 -186T486 -160Q486 -151 478 -148T460 -144Q449 -144 439 -146T418 -148Q388 -148 366 -130T344 -80Q344 -71 347 -51T356 -6Q300 14 259 54T187 146T136 257T102 374Q78 477 65 580T52 788Q52 849 57 914T77
1042T115 1165T175 1275T260 1365T376 1426Q400 1435 426 1438T478 1442Q530 1442 577 1425T659 1377T715 1302T736 1204Q736 1186 728 1177T700 1168Q663 1168 643 1180T609 1210T588 1249T567 1288T535 1318T480 1330Q445 1330 415 1317T359 1281T313 1232T276
1176Q234 1098 217 1010T200 832Q200 802 202 755T210 650T226 530T250 405T285 288T332 190T392 123T468 98Q511 98 544 120T600 177T639 252T664 328Q667 338 669 346T676 360T688 369T708 372Q722 372 741 367T778 351T808 327T820 296Q820 281 816 267T806
238Q784 182 753 135T682 53T590 -3T478 -26L472 -50Q494 -53 516 -61T556 -83T585 -115T596 -158Z" />
<glyph unicode="&#xc8;" glyph-name="Egrave" horiz-adv-x="745" d="M768 218Q768 201 755 185T722 154T683 127T650 106Q616 84 583 65T514 32T441 10T362 2L346 0Q313 0 281 7T220 30T170 70T136 128Q127 155 122 192T115 269T111 347T108 416Q93 722 84 1028Q82
1063 81 1098T80 1168Q80 1228 87 1270T115 1339T175 1378T280 1390Q345 1390 410 1389T542 1388Q562 1388 582 1389T622 1386Q634 1384 643 1380T652 1360Q652 1324 628 1307T571 1283T503 1277T444 1278H314Q294 1278 274 1278T234 1276Q228 1261 226 1245T224
1212Q224 1103 229 997T240 782Q302 787 363 794T486 810Q495 810 502 811T518 812Q539 812 547 801T556 770Q556 756 555 744T548 720Q541 700 525 691T489 679T448 675T410 674Q368 672 328 671T246 668Q247 647 249 605T253 511T259 402T267 297T276 210T286
160Q297 139 311 133T348 126Q385 126 426 140T506 177T580 227T642 280Q653 289 664 298T690 308Q705 308 719 299T744 277T761 247T768 218ZM424 1504Q424 1494 419 1485T404 1469T385 1458T366 1454Q354 1454 343 1459T322 1472Q290 1495 275 1506T249 1527T223
1549T178 1586Q169 1594 160 1603T146 1624V1632Q146 1642 152 1655T169 1678T192 1696T216 1704Q231 1704 244 1693T268 1672L352 1586Q359 1579 371 1570T395 1549T415 1526T424 1504Z" />
<glyph unicode="&#xc9;" glyph-name="Eacute" horiz-adv-x="745" d="M768 218Q768 201 755 185T722 154T683 127T650 106Q616 84 583 65T514 32T441 10T362 2L346 0Q313 0 281 7T220 30T170 70T136 128Q127 155 122 192T115 269T111 347T108 416Q93 722 84 1028Q82
1063 81 1098T80 1168Q80 1228 87 1270T115 1339T175 1378T280 1390Q345 1390 410 1389T542 1388Q562 1388 582 1389T622 1386Q634 1384 643 1380T652 1360Q652 1324 628 1307T571 1283T503 1277T444 1278H314Q294 1278 274 1278T234 1276Q228 1261 226 1245T224
1212Q224 1103 229 997T240 782Q302 787 363 794T486 810Q495 810 502 811T518 812Q539 812 547 801T556 770Q556 756 555 744T548 720Q541 700 525 691T489 679T448 675T410 674Q368 672 328 671T246 668Q247 647 249 605T253 511T259 402T267 297T276 210T286
160Q297 139 311 133T348 126Q385 126 426 140T506 177T580 227T642 280Q653 289 664 298T690 308Q705 308 719 299T744 277T761 247T768 218ZM298 1496Q298 1506 306 1518T326 1541T350 1561T370 1578L468 1668Q480 1677 493 1688T522 1700Q532 1700 544 1693T567
1675T585 1651T592 1628Q592 1626 592 1624T590 1620Q587 1608 578 1599T558 1582Q527 1557 511 1545T480 1522T449 1499T400 1464Q389 1456 379 1451T356 1446Q347 1446 337 1450T318 1461T304 1477T298 1496Z" />
<glyph unicode="&#xca;" glyph-name="Ecircumflex" horiz-adv-x="745" d="M768 218Q768 201 755 185T722 154T683 127T650 106Q616 84 583 65T514 32T441 10T362 2L346 0Q313 0 281 7T220 30T170 70T136 128Q127 155 122 192T115 269T111 347T108 416Q93 722 84
1028Q82 1063 81 1098T80 1168Q80 1228 87 1270T115 1339T175 1378T280 1390Q345 1390 410 1389T542 1388Q562 1388 582 1389T622 1386Q634 1384 643 1380T652 1360Q652 1324 628 1307T571 1283T503 1277T444 1278H314Q294 1278 274 1278T234 1276Q228 1261 226
1245T224 1212Q224 1103 229 997T240 782Q302 787 363 794T486 810Q495 810 502 811T518 812Q539 812 547 801T556 770Q556 756 555 744T548 720Q541 700 525 691T489 679T448 675T410 674Q368 672 328 671T246 668Q247 647 249 605T253 511T259 402T267 297T276
210T286 160Q297 139 311 133T348 126Q385 126 426 140T506 177T580 227T642 280Q653 289 664 298T690 308Q705 308 719 299T744 277T761 247T768 218ZM508 1484Q508 1476 502 1471T488 1464T471 1461T456 1460Q447 1460 437 1460T418 1466Q404 1472 399 1482T388
1504Q376 1536 364 1566T338 1626Q324 1591 310 1557T282 1488Q279 1479 276 1473T264 1460Q262 1458 254 1458Q246 1458 237 1462T219 1474T206 1490T200 1508Q200 1515 209 1543T231 1606T255 1672T272 1714Q281 1734 293 1745T330 1756Q358 1756 380 1734Q398
1716 410 1693T434 1646Q438 1638 450 1614T475 1562T498 1512T508 1484Z" />
<glyph unicode="&#xcb;" glyph-name="Edieresis" horiz-adv-x="745" d="M768 218Q768 201 755 185T722 154T683 127T650 106Q616 84 583 65T514 32T441 10T362 2L346 0Q313 0 281 7T220 30T170 70T136 128Q127 155 122 192T115 269T111 347T108 416Q93 722 84
1028Q82 1063 81 1098T80 1168Q80 1228 87 1270T115 1339T175 1378T280 1390Q345 1390 410 1389T542 1388Q562 1388 582 1389T622 1386Q634 1384 643 1380T652 1360Q652 1324 628 1307T571 1283T503 1277T444 1278H314Q294 1278 274 1278T234 1276Q228 1261 226
1245T224 1212Q224 1103 229 997T240 782Q302 787 363 794T486 810Q495 810 502 811T518 812Q539 812 547 801T556 770Q556 756 555 744T548 720Q541 700 525 691T489 679T448 675T410 674Q368 672 328 671T246 668Q247 647 249 605T253 511T259 402T267 297T276
210T286 160Q297 139 311 133T348 126Q385 126 426 140T506 177T580 227T642 280Q653 289 664 298T690 308Q705 308 719 299T744 277T761 247T768 218ZM132 1594Q132 1604 139 1609T156 1617T177 1620T196 1620Q206 1620 219 1620T245 1616T265 1605T274 1584Q274
1579 274 1563T273 1527T272 1493T270 1476Q262 1465 250 1464T226 1462Q195 1462 180 1465T158 1477T150 1502T144 1544Q141 1556 137 1568T132 1594ZM392 1594Q392 1604 399 1609T416 1617T437 1620T456 1620Q466 1620 479 1620T505 1616T525 1605T534 1584Q534
1579 534 1563T533 1527T532 1493T530 1476Q522 1465 510 1464T486 1462Q455 1462 440 1465T418 1477T410 1502T404 1544Q401 1556 397 1568T392 1594Z" />
<glyph unicode="&#xcc;" glyph-name="Igrave" horiz-adv-x="664" d="M659 144Q659 115 644 90T603 52Q595 48 564 45T497 38T429 32T383 28Q380 11 367 5T339 -2Q322 -2 300 3T261 14Q216 8 170 1T77 -6Q41 -6 41 28Q41 62 60 80T106 107T164 119T219 126Q214
410 209 690T203 1254Q162 1251 123 1249T45 1246Q37 1246 28 1246T12 1249T-1 1257T-7 1274Q-7 1293 1 1307T22 1331T52 1347T85 1356Q128 1364 172 1369T261 1380T350 1392T439 1408Q481 1417 523 1431T609 1446Q633 1446 641 1429T649 1390Q649 1373 646 1358T631
1328Q625 1320 605 1313T556 1299T495 1288T432 1278T376 1270T339 1266Q350 1127 354 988T362 710T368 432T379 154Q436 163 494 171T611 180Q628 180 643 173T659 144ZM295 1500Q295 1490 290 1481T275 1465T256 1454T237 1450Q225 1450 214 1455T193 1468Q161
1491 146 1502T120 1523T94 1545T49 1582Q40 1590 31 1599T17 1620V1628Q17 1638 23 1651T40 1674T63 1692T87 1700Q102 1700 115 1689T139 1668L223 1582Q230 1575 242 1566T266 1545T286 1522T295 1500Z" />
<glyph unicode="&#xcd;" glyph-name="Iacute" horiz-adv-x="660" d="M912 144Q912 115 897 90T856 52Q848 48 817 45T750 38T682 32T636 28Q633 11 620 5T592 -2Q575 -2 553 3T514 14Q469 8 423 1T330 -6Q294 -6 294 28Q294 62 313 80T359 107T417 119T472 126Q467
410 462 690T456 1254Q415 1251 376 1249T298 1246Q290 1246 281 1246T265 1249T252 1257T246 1274Q246 1293 254 1307T275 1331T305 1347T338 1356Q381 1364 425 1369T514 1380T603 1392T692 1408Q734 1417 776 1431T862 1446Q886 1446 894 1429T902 1390Q902
1373 899 1358T884 1328Q878 1320 858 1313T809 1299T748 1288T685 1278T629 1270T592 1266Q603 1127 607 988T615 710T621 432T632 154Q689 163 747 171T864 180Q881 180 896 173T912 144ZM229 1496Q229 1506 237 1518T257 1541T281 1561T301 1578L399 1668Q411
1677 424 1688T453 1700Q463 1700 475 1693T498 1675T516 1651T523 1628Q523 1626 523 1624T521 1620Q518 1608 509 1599T489 1582Q458 1557 442 1545T411 1522T380 1499T331 1464Q320 1456 310 1451T287 1446Q278 1446 268 1450T249 1461T235 1477T229 1496Z"
/>
<glyph unicode="&#xce;" glyph-name="Icircumflex" horiz-adv-x="664" d="M659 144Q659 115 644 90T603 52Q595 48 564 45T497 38T429 32T383 28Q380 11 367 5T339 -2Q322 -2 300 3T261 14Q216 8 170 1T77 -6Q41 -6 41 28Q41 62 60 80T106 107T164 119T219 126Q214
410 209 690T203 1254Q162 1251 123 1249T45 1246Q37 1246 28 1246T12 1249T-1 1257T-7 1274Q-7 1293 1 1307T22 1331T52 1347T85 1356Q128 1364 172 1369T261 1380T350 1392T439 1408Q481 1417 523 1431T609 1446Q633 1446 641 1429T649 1390Q649 1373 646 1358T631
1328Q625 1320 605 1313T556 1299T495 1288T432 1278T376 1270T339 1266Q350 1127 354 988T362 710T368 432T379 154Q436 163 494 171T611 180Q628 180 643 173T659 144ZM417 1480Q417 1472 411 1467T397 1460T380 1457T365 1456Q356 1456 346 1456T327 1462Q313
1468 308 1478T297 1500Q285 1532 273 1562T247 1622Q233 1587 219 1553T191 1484Q188 1475 185 1469T173 1456Q171 1454 163 1454Q155 1454 146 1458T128 1470T115 1486T109 1504Q109 1511 118 1539T140 1602T164 1668T181 1710Q190 1730 202 1741T239 1752Q267
1752 289 1730Q307 1712 319 1689T343 1642Q347 1634 359 1610T384 1558T407 1508T417 1480Z" />
<glyph unicode="&#xcf;" glyph-name="Idieresis" horiz-adv-x="664" d="M659 144Q659 115 644 90T603 52Q595 48 564 45T497 38T429 32T383 28Q380 11 367 5T339 -2Q322 -2 300 3T261 14Q216 8 170 1T77 -6Q41 -6 41 28Q41 62 60 80T106 107T164 119T219 126Q214
410 209 690T203 1254Q162 1251 123 1249T45 1246Q37 1246 28 1246T12 1249T-1 1257T-7 1274Q-7 1293 1 1307T22 1331T52 1347T85 1356Q128 1364 172 1369T261 1380T350 1392T439 1408Q481 1417 523 1431T609 1446Q633 1446 641 1429T649 1390Q649 1373 646 1358T631
1328Q625 1320 605 1313T556 1299T495 1288T432 1278T376 1270T339 1266Q350 1127 354 988T362 710T368 432T379 154Q436 163 494 171T611 180Q628 180 643 173T659 144ZM41 1602Q41 1612 48 1617T65 1625T86 1628T105 1628Q115 1628 128 1628T154 1624T174 1613T183
1592Q183 1587 183 1571T182 1535T181 1501T179 1484Q171 1473 159 1472T135 1470Q104 1470 89 1473T67 1485T59 1510T53 1552Q50 1564 46 1576T41 1602ZM301 1602Q301 1612 308 1617T325 1625T346 1628T365 1628Q375 1628 388 1628T414 1624T434 1613T443 1592Q443
1587 443 1571T442 1535T441 1501T439 1484Q431 1473 419 1472T395 1470Q364 1470 349 1473T327 1485T319 1510T313 1552Q310 1564 306 1576T301 1602Z" />
<glyph unicode="&#xd0;" glyph-name="Eth" horiz-adv-x="841" d="M296 744Q305 744 326 745T370 745T410 737T428 716Q428 689 415 675T383 654T341 647T300 646Q305 554 309 464T320 282Q323 203 332 128Q426 159 490 224T592 372T647 550T664 734Q664 834 640
923T569 1085T450 1215T284 1308V1304Q284 1023 296 744ZM12 662Q12 676 18 688Q28 715 39 727T66 743T100 746T144 744Q142 803 142 860T142 974Q142 1068 144 1159T146 1344Q135 1344 126 1350T116 1368Q116 1384 124 1397T146 1421T174 1436T204 1442Q218 1442
230 1440T256 1434Q389 1402 493 1337T668 1180T777 970T814 716Q814 608 795 506T732 313T618 150T444 28Q418 16 387 6T323 -11T258 -22T198 -26Q187 -26 174 -26T148 -22T128 -10T120 12Q120 24 125 37T138 62T158 83T180 98Q174 107 170 146T161 239T155 356T151
476T148 576T146 636Q125 634 104 634T62 634Q54 634 45 634T29 637T17 645T12 662Z" />
<glyph unicode="&#xd1;" glyph-name="Ntilde" horiz-adv-x="797" d="M708 82Q708 64 705 47T693 16T670 -6T634 -14Q607 -14 591 -3T560 30Q541 57 526 92T499 165T477 240T456 310Q402 478 356 645T256 980Q251 763 249 548T246 116Q246 105 245 91T240 65T228
43T204 34Q153 34 127 61T100 140Q100 421 101 697T102 1252V1394Q102 1417 110 1432T148 1448Q168 1448 189 1443T226 1426T253 1398T264 1356Q306 1276 334 1191T390 1020Q429 895 467 770T544 518Q538 707 532 895T506 1272Q501 1313 495 1352T488 1432Q488
1453 502 1460T534 1468Q565 1468 587 1463T624 1446T647 1414T660 1362Q666 1308 669 1254T676 1146Q685 1012 689 880T696 614Q699 481 703 349T708 82ZM556 1620Q556 1570 526 1540T440 1510Q397 1510 373 1522T337 1554T320 1596T313 1637T304 1669T284 1682Q254
1682 254 1656Q254 1636 262 1615T279 1575T296 1542T304 1522Q304 1510 290 1506T266 1502Q240 1502 225 1512T198 1542Q184 1568 173 1595T162 1652Q162 1702 197 1727T286 1752Q325 1752 356 1734T400 1680Q402 1673 404 1657T410 1625T420 1595T438 1582Q443
1582 446 1586T450 1596T452 1607T452 1614Q452 1635 448 1656T436 1698Q433 1707 429 1714T424 1730Q424 1743 438 1747T464 1752Q492 1752 510 1740T538 1709T552 1667T556 1620Z" />
<glyph unicode="&#xd2;" glyph-name="Ograve" horiz-adv-x="788" d="M727 768Q727 726 726 671T719 552T703 423T675 294T633 175T573 77T492 11T387 -14Q328 -14 280 13T199 86Q172 122 152 174T116 289T89 418T72 550T62 673T59 776Q59 850 65 931T90 1091T139
1245T219 1378Q224 1384 231 1392T248 1407T266 1420T285 1426Q294 1426 302 1421T317 1408Q338 1420 361 1425T409 1430Q482 1430 534 1396T622 1305T678 1178T710 1033T724 890T727 768ZM571 724Q571 750 570 803T562 921T546 1054T517 1177T473 1268T409 1304Q394
1304 382 1290T359 1254T339 1206T321 1156T304 1113T287 1086Q284 1083 278 1083T265 1082Q248 1082 233 1088Q216 1020 210 953T203 816Q203 795 205 753T211 657T222 541T239 418T262 300T294 200T334 130T383 104Q398 104 410 112T433 130Q463 157 485 201T522
298T547 409T562 525T569 633T571 724ZM423 1556Q423 1546 418 1537T403 1521T384 1510T365 1506Q353 1506 342 1511T321 1524Q289 1547 274 1558T248 1579T222 1601T177 1638Q168 1646 159 1655T145 1676V1684Q145 1694 151 1707T168 1730T191 1748T215 1756Q230
1756 243 1745T267 1724L351 1638Q358 1631 370 1622T394 1601T414 1578T423 1556Z" />
<glyph unicode="&#xd3;" glyph-name="Oacute" horiz-adv-x="788" d="M727 768Q727 726 726 671T719 552T703 423T675 294T633 175T573 77T492 11T387 -14Q328 -14 280 13T199 86Q172 122 152 174T116 289T89 418T72 550T62 673T59 776Q59 850 65 931T90 1091T139
1245T219 1378Q224 1384 231 1392T248 1407T266 1420T285 1426Q294 1426 302 1421T317 1408Q338 1420 361 1425T409 1430Q482 1430 534 1396T622 1305T678 1178T710 1033T724 890T727 768ZM571 724Q571 750 570 803T562 921T546 1054T517 1177T473 1268T409 1304Q394
1304 382 1290T359 1254T339 1206T321 1156T304 1113T287 1086Q284 1083 278 1083T265 1082Q248 1082 233 1088Q216 1020 210 953T203 816Q203 795 205 753T211 657T222 541T239 418T262 300T294 200T334 130T383 104Q398 104 410 112T433 130Q463 157 485 201T522
298T547 409T562 525T569 633T571 724ZM339 1536Q339 1546 347 1558T367 1581T391 1601T411 1618L509 1708Q521 1717 534 1728T563 1740Q573 1740 585 1733T608 1715T626 1691T633 1668Q633 1666 633 1664T631 1660Q628 1648 619 1639T599 1622Q568 1597 552 1585T521
1562T490 1539T441 1504Q430 1496 420 1491T397 1486Q388 1486 378 1490T359 1501T345 1517T339 1536Z" />
<glyph unicode="&#xd4;" glyph-name="Ocircumflex" horiz-adv-x="788" d="M727 768Q727 726 726 671T719 552T703 423T675 294T633 175T573 77T492 11T387 -14Q328 -14 280 13T199 86Q172 122 152 174T116 289T89 418T72 550T62 673T59 776Q59 850 65 931T90 1091T139
1245T219 1378Q224 1384 231 1392T248 1407T266 1420T285 1426Q294 1426 302 1421T317 1408Q338 1420 361 1425T409 1430Q482 1430 534 1396T622 1305T678 1178T710 1033T724 890T727 768ZM571 724Q571 750 570 803T562 921T546 1054T517 1177T473 1268T409 1304Q394
1304 382 1290T359 1254T339 1206T321 1156T304 1113T287 1086Q284 1083 278 1083T265 1082Q248 1082 233 1088Q216 1020 210 953T203 816Q203 795 205 753T211 657T222 541T239 418T262 300T294 200T334 130T383 104Q398 104 410 112T433 130Q463 157 485 201T522
298T547 409T562 525T569 633T571 724ZM533 1506Q533 1498 527 1493T513 1486T496 1483T481 1482Q472 1482 462 1482T443 1488Q429 1494 424 1504T413 1526Q401 1558 389 1588T363 1648Q349 1613 335 1579T307 1510Q304 1501 301 1495T289 1482Q287 1480 279 1480Q271
1480 262 1484T244 1496T231 1512T225 1530Q225 1537 234 1565T256 1628T280 1694T297 1736Q306 1756 318 1767T355 1778Q383 1778 405 1756Q423 1738 435 1715T459 1668Q463 1660 475 1636T500 1584T523 1534T533 1506Z" />
<glyph unicode="&#xd5;" glyph-name="Otilde" horiz-adv-x="788" d="M727 768Q727 726 726 671T719 552T703 423T675 294T633 175T573 77T492 11T387 -14Q328 -14 280 13T199 86Q172 122 152 174T116 289T89 418T72 550T62 673T59 776Q59 850 65 931T90 1091T139
1245T219 1378Q224 1384 231 1392T248 1407T266 1420T285 1426Q294 1426 302 1421T317 1408Q338 1420 361 1425T409 1430Q482 1430 534 1396T622 1305T678 1178T710 1033T724 890T727 768ZM571 724Q571 750 570 803T562 921T546 1054T517 1177T473 1268T409 1304Q394
1304 382 1290T359 1254T339 1206T321 1156T304 1113T287 1086Q284 1083 278 1083T265 1082Q248 1082 233 1088Q216 1020 210 953T203 816Q203 795 205 753T211 657T222 541T239 418T262 300T294 200T334 130T383 104Q398 104 410 112T433 130Q463 157 485 201T522
298T547 409T562 525T569 633T571 724ZM559 1592Q559 1542 529 1512T443 1482Q400 1482 376 1494T340 1526T323 1568T316 1609T307 1641T287 1654Q257 1654 257 1628Q257 1608 265 1587T282 1547T299 1514T307 1494Q307 1482 293 1478T269 1474Q243 1474 228 1484T201
1514Q187 1540 176 1567T165 1624Q165 1674 200 1699T289 1724Q328 1724 359 1706T403 1652Q405 1645 407 1629T413 1597T423 1567T441 1554Q446 1554 449 1558T453 1568T455 1579T455 1586Q455 1607 451 1628T439 1670Q436 1679 432 1686T427 1702Q427 1715 441
1719T467 1724Q495 1724 513 1712T541 1681T555 1639T559 1592Z" />
<glyph unicode="&#xd6;" glyph-name="Odieresis" horiz-adv-x="788" d="M727 768Q727 726 726 671T719 552T703 423T675 294T633 175T573 77T492 11T387 -14Q328 -14 280 13T199 86Q172 122 152 174T116 289T89 418T72 550T62 673T59 776Q59 850 65 931T90 1091T139
1245T219 1378Q224 1384 231 1392T248 1407T266 1420T285 1426Q294 1426 302 1421T317 1408Q338 1420 361 1425T409 1430Q482 1430 534 1396T622 1305T678 1178T710 1033T724 890T727 768ZM571 724Q571 750 570 803T562 921T546 1054T517 1177T473 1268T409 1304Q394
1304 382 1290T359 1254T339 1206T321 1156T304 1113T287 1086Q284 1083 278 1083T265 1082Q248 1082 233 1088Q216 1020 210 953T203 816Q203 795 205 753T211 657T222 541T239 418T262 300T294 200T334 130T383 104Q398 104 410 112T433 130Q463 157 485 201T522
298T547 409T562 525T569 633T571 724ZM187 1620Q187 1630 194 1635T211 1643T232 1646T251 1646Q261 1646 274 1646T300 1642T320 1631T329 1610Q329 1605 329 1589T328 1553T327 1519T325 1502Q317 1491 305 1490T281 1488Q250 1488 235 1491T213 1503T205 1528T199
1570Q196 1582 192 1594T187 1620ZM447 1620Q447 1630 454 1635T471 1643T492 1646T511 1646Q521 1646 534 1646T560 1642T580 1631T589 1610Q589 1605 589 1589T588 1553T587 1519T585 1502Q577 1491 565 1490T541 1488Q510 1488 495 1491T473 1503T465 1528T459
1570Q456 1582 452 1594T447 1620Z" />
<glyph unicode="&#xd7;" glyph-name="multiply" horiz-adv-x="513" d="M419 932Q419 925 413 908T396 866T374 816T351 765T331 722T319 696Q325 686 339 663T372 609T410 546T446 483T472 432T483 404Q483 393 476 387T458 378T436 375T417 374H403Q380 375 366
382T343 400T326 427T309 460Q295 487 282 512T253 564Q238 531 222 499T189 434Q181 417 174 400T149 374Q146 371 142 371T135 370Q124 370 110 376T83 393T62 417T53 442Q53 462 64 480T85 516Q109 560 132 604T179 694Q175 701 164 720T137 765T106 818T77
870T54 912T45 934Q45 942 50 947T64 955T80 959T95 960Q118 960 136 954T169 930Q190 906 207 876T243 816L295 918Q299 926 304 939T317 964T334 985T355 994Q365 994 376 988T397 973T413 953T419 932Z" />
<glyph unicode="&#xd8;" glyph-name="Oslash" horiz-adv-x="792" d="M241 410L425 1234Q427 1245 430 1261T437 1298Q425 1304 409 1304Q394 1304 382 1290T359 1254T339 1206T321 1156T304 1113T287 1086Q284 1083 278 1083T265 1082Q248 1082 233 1088Q216 1020
210 953T203 816Q203 794 205 752T211 654T223 535T241 410ZM539 1094Q515 982 493 872T447 650Q420 519 392 389T337 128Q358 104 383 104Q398 104 410 112T433 130Q463 157 485 201T522 298T547 409T562 525T569 633T571 724Q571 746 570 786T566 877T556 984T539
1094ZM595 1380Q595 1371 594 1364T593 1348Q623 1312 645 1266T682 1169T706 1063T719 956T725 855T727 768Q727 726 726 671T719 552T703 423T675 294T633 175T573 77T492 11T387 -14Q348 -14 315 -2Q309 -17 299 -27T271 -38Q257 -38 238 -33T201 -18T171 5T159
36Q159 42 160 48T161 60Q164 77 168 92T175 124Q153 164 136 217T106 328T84 449T70 570T62 682T59 776Q59 850 65 931T90 1091T139 1245T219 1378Q224 1384 231 1392T248 1407T266 1420T285 1426Q294 1426 302 1421T317 1408Q338 1420 361 1425T409 1430Q440
1430 467 1424Q470 1436 473 1442Q479 1453 485 1457T503 1462Q519 1462 535 1456T565 1438T587 1412T595 1380Z" />
<glyph unicode="&#xd9;" glyph-name="Ugrave" horiz-adv-x="833" d="M769 614Q769 560 766 493T751 356T719 220T662 101T574 18T447 -14Q406 -14 367 -2T295 34Q243 72 208 143T149 304T114 494T97 692T90 875T89 1022Q89 1038 89 1068T89 1134T91 1210T94 1284T99
1347T107 1386Q112 1398 118 1403T139 1408Q184 1408 210 1381T237 1308Q237 1242 234 1176T231 1044Q231 1015 231 959T235 832T244 678T260 516T287 361T325 229T378 138T447 104Q484 104 511 133T557 207T587 309T605 419T613 520T615 594Q615 649 613 716T606
857T593 1006T574 1153T549 1290T515 1406Q512 1415 506 1429T499 1452Q499 1468 506 1476T525 1487T549 1491T573 1492Q597 1492 612 1490T649 1476Q663 1468 675 1432T699 1341T719 1217T737 1074T751 927T761 792T767 683T769 614ZM389 1544Q389 1534 384 1525T369
1509T350 1498T331 1494Q319 1494 308 1499T287 1512Q255 1535 240 1546T214 1567T188 1589T143 1626Q134 1634 125 1643T111 1664V1672Q111 1682 117 1695T134 1718T157 1736T181 1744Q196 1744 209 1733T233 1712L317 1626Q324 1619 336 1610T360 1589T380 1566T389
1544Z" />
<glyph unicode="&#xda;" glyph-name="Uacute" horiz-adv-x="833" d="M769 614Q769 560 766 493T751 356T719 220T662 101T574 18T447 -14Q406 -14 367 -2T295 34Q243 72 208 143T149 304T114 494T97 692T90 875T89 1022Q89 1038 89 1068T89 1134T91 1210T94 1284T99
1347T107 1386Q112 1398 118 1403T139 1408Q184 1408 210 1381T237 1308Q237 1242 234 1176T231 1044Q231 1015 231 959T235 832T244 678T260 516T287 361T325 229T378 138T447 104Q484 104 511 133T557 207T587 309T605 419T613 520T615 594Q615 649 613 716T606
857T593 1006T574 1153T549 1290T515 1406Q512 1415 506 1429T499 1452Q499 1468 506 1476T525 1487T549 1491T573 1492Q597 1492 612 1490T649 1476Q663 1468 675 1432T699 1341T719 1217T737 1074T751 927T761 792T767 683T769 614ZM321 1552Q321 1562 329 1574T349
1597T373 1617T393 1634L491 1724Q503 1733 516 1744T545 1756Q555 1756 567 1749T590 1731T608 1707T615 1684Q615 1682 615 1680T613 1676Q610 1664 601 1655T581 1638Q550 1613 534 1601T503 1578T472 1555T423 1520Q412 1512 402 1507T379 1502Q370 1502 360
1506T341 1517T327 1533T321 1552Z" />
<glyph unicode="&#xdb;" glyph-name="Ucircumflex" horiz-adv-x="833" d="M769 614Q769 560 766 493T751 356T719 220T662 101T574 18T447 -14Q406 -14 367 -2T295 34Q243 72 208 143T149 304T114 494T97 692T90 875T89 1022Q89 1038 89 1068T89 1134T91 1210T94
1284T99 1347T107 1386Q112 1398 118 1403T139 1408Q184 1408 210 1381T237 1308Q237 1242 234 1176T231 1044Q231 1015 231 959T235 832T244 678T260 516T287 361T325 229T378 138T447 104Q484 104 511 133T557 207T587 309T605 419T613 520T615 594Q615 649 613
716T606 857T593 1006T574 1153T549 1290T515 1406Q512 1415 506 1429T499 1452Q499 1468 506 1476T525 1487T549 1491T573 1492Q597 1492 612 1490T649 1476Q663 1468 675 1432T699 1341T719 1217T737 1074T751 927T761 792T767 683T769 614ZM509 1552Q509 1544
503 1539T489 1532T472 1529T457 1528Q448 1528 438 1528T419 1534Q405 1540 400 1550T389 1572Q377 1604 365 1634T339 1694Q325 1659 311 1625T283 1556Q280 1547 277 1541T265 1528Q263 1526 255 1526Q247 1526 238 1530T220 1542T207 1558T201 1576Q201 1583
210 1611T232 1674T256 1740T273 1782Q282 1802 294 1813T331 1824Q359 1824 381 1802Q399 1784 411 1761T435 1714Q439 1706 451 1682T476 1630T499 1580T509 1552Z" />
<glyph unicode="&#xdc;" glyph-name="Udieresis" horiz-adv-x="833" d="M769 614Q769 560 766 493T751 356T719 220T662 101T574 18T447 -14Q406 -14 367 -2T295 34Q243 72 208 143T149 304T114 494T97 692T90 875T89 1022Q89 1038 89 1068T89 1134T91 1210T94
1284T99 1347T107 1386Q112 1398 118 1403T139 1408Q184 1408 210 1381T237 1308Q237 1242 234 1176T231 1044Q231 1015 231 959T235 832T244 678T260 516T287 361T325 229T378 138T447 104Q484 104 511 133T557 207T587 309T605 419T613 520T615 594Q615 649 613
716T606 857T593 1006T574 1153T549 1290T515 1406Q512 1415 506 1429T499 1452Q499 1468 506 1476T525 1487T549 1491T573 1492Q597 1492 612 1490T649 1476Q663 1468 675 1432T699 1341T719 1217T737 1074T751 927T761 792T767 683T769 614ZM155 1690Q155 1700
162 1705T179 1713T200 1716T219 1716Q229 1716 242 1716T268 1712T288 1701T297 1680Q297 1675 297 1659T296 1623T295 1589T293 1572Q285 1561 273 1560T249 1558Q218 1558 203 1561T181 1573T173 1598T167 1640Q164 1652 160 1664T155 1690ZM415 1690Q415 1700
422 1705T439 1713T460 1716T479 1716Q489 1716 502 1716T528 1712T548 1701T557 1680Q557 1675 557 1659T556 1623T555 1589T553 1572Q545 1561 533 1560T509 1558Q478 1558 463 1561T441 1573T433 1598T427 1640Q424 1652 420 1664T415 1690Z" />
<glyph unicode="&#xdd;" glyph-name="Yacute" horiz-adv-x="585" d="M583 1434Q583 1413 570 1358T537 1229T492 1073T443 915T399 780T369 694Q380 605 384 517T393 340Q398 265 402 189T407 38Q407 15 396 3T361 -10Q352 -10 337 -8T307 -1T278 10T259 22Q247
36 244 48T241 78Q241 233 238 386T235 694L227 702Q221 711 214 727T199 762T185 797T175 824Q142 916 113 1008T51 1192Q46 1208 35 1235T13 1293T-6 1349T-15 1390Q-15 1401 -9 1408T6 1418T25 1423T43 1424Q69 1424 91 1422T137 1404Q143 1400 156 1367T185
1285T218 1179T251 1069T278 975T295 918Q328 1046 361 1172T419 1428Q421 1440 423 1454T430 1481T444 1501T469 1510Q482 1510 501 1504T539 1488T570 1464T583 1434ZM227 1542Q227 1552 235 1564T255 1587T279 1607T299 1624L397 1714Q409 1723 422 1734T451
1746Q461 1746 473 1739T496 1721T514 1697T521 1674Q521 1672 521 1670T519 1666Q516 1654 507 1645T487 1628Q456 1603 440 1591T409 1568T378 1545T329 1510Q318 1502 308 1497T285 1492Q276 1492 266 1496T247 1507T233 1523T227 1542Z" />
<glyph unicode="&#xde;" glyph-name="Thorn" horiz-adv-x="713" d="M706 896Q706 797 675 697T587 510T451 355T278 252L314 102Q317 87 320 71T324 38Q324 12 311 3T274 -6Q257 -6 233 -2T192 10Q172 21 166 32T156 64Q148 106 143 136T133 186Q129 209 126 224Q106
226 93 234T80 264Q80 284 91 306T118 340Q109 526 110 709T110 1078Q105 1076 101 1075T92 1074Q81 1074 74 1079T63 1093T56 1110T54 1128Q54 1158 69 1171T110 1196V1368Q110 1379 111 1391T116 1414T128 1431T150 1438Q173 1438 193 1431T228 1406Q235 1395
236 1368T238 1311T237 1259T236 1234Q271 1240 304 1245T372 1250Q451 1250 513 1224T618 1150T683 1037T706 896ZM556 914Q556 960 544 1000T508 1070T447 1117T360 1134Q333 1134 306 1130T252 1118Q252 935 254 755T268 394Q332 427 385 486T476 616T535 765T556
914Z" />
<glyph unicode="&#xdf;" glyph-name="germandbls" horiz-adv-x="686" d="M133 49Q124 152 123 256T121 464V509Q95 506 67 504T12 502Q-5 502 -11 510T-17 535Q-17 545 -16 558T-11 584T1 607T23 621H22Q26 623 37 623T63 623Q80 623 96 623T121 622Q121 711 124
798T139 973Q146 1027 159 1087T200 1199T271 1283T385 1317Q440 1317 484 1297T559 1241T607 1159T624 1059Q624 997 606 935T556 819Q539 792 515 760Q486 722 462 681T438 594Q438 564 449 537T477 485T518 437T565 392Q590 368 613 344T655 295T685 241T697
181Q697 136 676 100T620 38T545 -2T463 -16Q408 -16 357 2T261 51Q262 40 262 30T262 9Q262 -11 256 -25T223 -40Q180 -40 159 -17T133 49ZM252 574Q252 462 252 350T257 126Q271 134 290 140T324 146Q340 146 356 140T388 125Q404 117 423 109T467 101Q482 101
498 108T527 126T548 152T557 183Q557 198 549 213T528 245T498 279T462 314Q434 341 405 371T353 435T314 507T299 590Q299 623 306 652T326 706T354 756T386 804Q404 830 422 857T454 916T476 984T485 1065Q485 1086 480 1111T462 1157T431 1192T385 1206Q360
1206 341 1183T307 1121T284 1032T268 927T259 817T254 714T252 629T252 574Z" />
<glyph unicode="&#xe0;" glyph-name="agrave" horiz-adv-x="489" d="M474 13Q474 -7 464 -14T436 -22Q389 -22 369 3T338 69Q335 83 332 97T327 126Q325 139 323 144T319 163Q307 134 290 103T249 45T198 1T135 -16Q99 -16 75 1T38 45T19 104T13 165Q13 233 26
312T64 471T120 624T190 753V752L196 761Q207 776 221 793T256 811Q275 811 289 795T309 760Q335 755 351 748T376 729T388 704T391 672Q391 665 391 657T390 641Q389 633 389 622T389 602Q389 592 392 576T400 543L407 506Q412 477 415 440T424 366Q428 328 432
293T440 227L464 79L467 62Q469 49 471 38T474 13ZM245 588Q245 590 244 594T242 604Q219 555 202 498T173 381T156 262T150 149Q150 144 150 140T151 132V131Q175 168 192 228T222 355T239 484T245 588ZM299 931Q299 921 294 912T279 896T260 885T241 881Q229
881 218 886T197 899Q165 922 150 933T124 954T98 976T53 1013Q44 1021 35 1030T21 1051V1059Q21 1069 27 1082T44 1105T67 1123T91 1131Q106 1131 119 1120T143 1099L227 1013Q234 1006 246 997T270 976T290 953T299 931Z" />
<glyph unicode="&#xe1;" glyph-name="aacute" horiz-adv-x="489" d="M474 13Q474 -7 464 -14T436 -22Q389 -22 369 3T338 69Q335 83 332 97T327 126Q325 139 323 144T319 163Q307 134 290 103T249 45T198 1T135 -16Q99 -16 75 1T38 45T19 104T13 165Q13 233 26
312T64 471T120 624T190 753V752L196 761Q207 776 221 793T256 811Q275 811 289 795T309 760Q335 755 351 748T376 729T388 704T391 672Q391 665 391 657T390 641Q389 633 389 622T389 602Q389 592 392 576T400 543L407 506Q412 477 415 440T424 366Q428 328 432
293T440 227L464 79L467 62Q469 49 471 38T474 13ZM245 588Q245 590 244 594T242 604Q219 555 202 498T173 381T156 262T150 149Q150 144 150 140T151 132V131Q175 168 192 228T222 355T239 484T245 588ZM231 941Q231 951 239 963T259 986T283 1006T303 1023L401
1113Q413 1122 426 1133T455 1145Q465 1145 477 1138T500 1120T518 1096T525 1073Q525 1071 525 1069T523 1065Q520 1053 511 1044T491 1027Q460 1002 444 990T413 967T382 944T333 909Q322 901 312 896T289 891Q280 891 270 895T251 906T237 922T231 941Z" />
<glyph unicode="&#xe2;" glyph-name="acircumflex" horiz-adv-x="489" d="M474 13Q474 -7 464 -14T436 -22Q389 -22 369 3T338 69Q335 83 332 97T327 126Q325 139 323 144T319 163Q307 134 290 103T249 45T198 1T135 -16Q99 -16 75 1T38 45T19 104T13 165Q13 233
26 312T64 471T120 624T190 753V752L196 761Q207 776 221 793T256 811Q275 811 289 795T309 760Q335 755 351 748T376 729T388 704T391 672Q391 665 391 657T390 641Q389 633 389 622T389 602Q389 592 392 576T400 543L407 506Q412 477 415 440T424 366Q428 328
432 293T440 227L464 79L467 62Q469 49 471 38T474 13ZM245 588Q245 590 244 594T242 604Q219 555 202 498T173 381T156 262T150 149Q150 144 150 140T151 132V131Q175 168 192 228T222 355T239 484T245 588ZM395 867Q395 859 389 854T375 847T358 844T343 843Q334
843 324 843T305 849Q291 855 286 865T275 887Q263 919 251 949T225 1009Q211 974 197 940T169 871Q166 862 163 856T151 843Q149 841 141 841Q133 841 124 845T106 857T93 873T87 891Q87 898 96 926T118 989T142 1055T159 1097Q168 1117 180 1128T217 1139Q245
1139 267 1117Q285 1099 297 1076T321 1029Q325 1021 337 997T362 945T385 895T395 867Z" />
<glyph unicode="&#xe3;" glyph-name="atilde" horiz-adv-x="489" d="M474 13Q474 -7 464 -14T436 -22Q389 -22 369 3T338 69Q335 83 332 97T327 126Q325 139 323 144T319 163Q307 134 290 103T249 45T198 1T135 -16Q99 -16 75 1T38 45T19 104T13 165Q13 233 26
312T64 471T120 624T190 753V752L196 761Q207 776 221 793T256 811Q275 811 289 795T309 760Q335 755 351 748T376 729T388 704T391 672Q391 665 391 657T390 641Q389 633 389 622T389 602Q389 592 392 576T400 543L407 506Q412 477 415 440T424 366Q428 328 432
293T440 227L464 79L467 62Q469 49 471 38T474 13ZM245 588Q245 590 244 594T242 604Q219 555 202 498T173 381T156 262T150 149Q150 144 150 140T151 132V131Q175 168 192 228T222 355T239 484T245 588ZM441 965Q441 915 411 885T325 855Q282 855 258 867T222
899T205 941T198 982T189 1014T169 1027Q139 1027 139 1001Q139 981 147 960T164 920T181 887T189 867Q189 855 175 851T151 847Q125 847 110 857T83 887Q69 913 58 940T47 997Q47 1047 82 1072T171 1097Q210 1097 241 1079T285 1025Q287 1018 289 1002T295 970T305
940T323 927Q328 927 331 931T335 941T337 952T337 959Q337 980 333 1001T321 1043Q318 1052 314 1059T309 1075Q309 1088 323 1092T349 1097Q377 1097 395 1085T423 1054T437 1012T441 965Z" />
<glyph unicode="&#xe4;" glyph-name="adieresis" horiz-adv-x="489" d="M474 13Q474 -7 464 -14T436 -22Q389 -22 369 3T338 69Q335 83 332 97T327 126Q325 139 323 144T319 163Q307 134 290 103T249 45T198 1T135 -16Q99 -16 75 1T38 45T19 104T13 165Q13 233
26 312T64 471T120 624T190 753V752L196 761Q207 776 221 793T256 811Q275 811 289 795T309 760Q335 755 351 748T376 729T388 704T391 672Q391 665 391 657T390 641Q389 633 389 622T389 602Q389 592 392 576T400 543L407 506Q412 477 415 440T424 366Q428 328
432 293T440 227L464 79L467 62Q469 49 471 38T474 13ZM245 588Q245 590 244 594T242 604Q219 555 202 498T173 381T156 262T150 149Q150 144 150 140T151 132V131Q175 168 192 228T222 355T239 484T245 588ZM43 989Q43 999 50 1004T67 1012T88 1015T107 1015Q117
1015 130 1015T156 1011T176 1000T185 979Q185 974 185 958T184 922T183 888T181 871Q173 860 161 859T137 857Q106 857 91 860T69 872T61 897T55 939Q52 951 48 963T43 989ZM303 989Q303 999 310 1004T327 1012T348 1015T367 1015Q377 1015 390 1015T416 1011T436
1000T445 979Q445 974 445 958T444 922T443 888T441 871Q433 860 421 859T397 857Q366 857 351 860T329 872T321 897T315 939Q312 951 308 963T303 989Z" />
<glyph unicode="&#xe5;" glyph-name="aring" horiz-adv-x="489" d="M474 13Q474 -7 464 -14T436 -22Q389 -22 369 3T338 69Q335 83 332 97T327 126Q325 139 323 144T319 163Q307 134 290 103T249 45T198 1T135 -16Q99 -16 75 1T38 45T19 104T13 165Q13 233 26
312T64 471T120 624T190 753V752L196 761Q207 776 221 793T256 811Q275 811 289 795T309 760Q335 755 351 748T376 729T388 704T391 672Q391 665 391 657T390 641Q389 633 389 622T389 602Q389 592 392 576T400 543L407 506Q412 477 415 440T424 366Q428 328 432
293T440 227L464 79L467 62Q469 49 471 38T474 13ZM245 588Q245 590 244 594T242 604Q219 555 202 498T173 381T156 262T150 149Q150 144 150 140T151 132V131Q175 168 192 228T222 355T239 484T245 588ZM305 981Q294 993 286 998T261 1003Q246 1003 229 994T211
967Q211 950 225 942T255 933Q274 933 281 938T292 951T296 967T305 981ZM399 957Q399 931 386 912T351 880T306 860T259 853Q235 853 210 860T163 881T129 916T115 965Q115 992 128 1012T162 1047T208 1068T257 1075Q284 1075 309 1068T355 1045T387 1008T399
957Z" />
<glyph unicode="&#xe6;" glyph-name="ae" horiz-adv-x="736" d="M753 183Q753 180 753 177T750 169H751Q740 135 715 102T656 42T584 -1T508 -18Q468 -18 437 -4T383 35T343 91T316 158Q304 130 287 99T247 43T196 1T133 -16Q97 -16 73 1T36 45T17 104T11 165Q11
233 25 306T63 451T119 590T188 714Q193 723 200 733T215 751T233 765T253 771Q274 771 288 756T307 722Q323 719 339 713T369 695Q391 726 421 744T491 763Q523 763 548 750T591 716T618 666T628 608Q628 569 610 523T563 435T499 357T428 305Q430 285 436 251T453
183T479 124T512 99Q524 99 539 110T567 138T591 172T607 200Q609 204 611 206L612 207Q619 220 625 231T644 250H643Q647 254 651 254T661 255Q672 255 687 248T717 231T742 208T753 183ZM243 549Q243 551 242 555T240 565Q194 468 171 363T148 149Q148 144 148
140T149 132V130Q173 165 190 219T220 333T237 449T243 549ZM496 604Q496 614 495 625T490 645Q476 628 466 605T450 556T438 504T430 455Q456 486 476 525T496 604Z" />
<glyph unicode="&#xe7;" glyph-name="ccedilla" horiz-adv-x="440" d="M401 -165Q401 -194 387 -217T350 -256T301 -282T250 -291Q220 -291 191 -282T133 -258V-259Q127 -257 117 -252T97 -239T80 -225T73 -209Q73 -200 82 -193T103 -180T127 -173T145 -170Q159
-170 171 -174T195 -183Q207 -188 219 -192T242 -196Q254 -196 268 -189T282 -167Q282 -161 276 -159T262 -156Q257 -156 252 -156T242 -158Q237 -159 232 -159T220 -160Q188 -160 165 -141T142 -88Q142 -78 147 -51T159 4Q121 22 96 55T56 130T35 217T29 304Q29
341 32 391T43 496T68 603T111 697T174 765T264 791Q275 791 296 787T337 776T373 756T389 727Q389 712 376 704T344 693T306 689T274 688H256Q228 663 210 615T182 511T168 403T164 315Q164 267 171 221T202 133Q207 124 216 113T238 101Q247 101 256 116T274
151T287 190T294 218Q295 222 295 227T295 237Q295 246 295 254T298 268Q305 285 316 291T345 297Q360 297 377 293T409 280T434 257T444 224Q444 203 437 181T421 139Q411 116 399 94T371 52T336 17T292 -5Q290 -19 287 -32T280 -54Q302 -58 323 -67T362 -90T390
-122T401 -165Z" />
<glyph unicode="&#xe8;" glyph-name="egrave" horiz-adv-x="433" d="M436 183Q436 153 420 121T377 63T318 19T251 2Q204 2 170 20T111 70T71 142T46 224T34 309T30 387Q30 417 33 458T45 543T69 630T106 707T160 762T233 783Q265 783 290 770T333 736T360 686T370
628Q370 589 352 543T306 454T242 377T171 324Q173 306 179 272T195 203T220 144T255 119Q265 119 272 125T286 141T296 163T305 186L311 200Q313 203 313 204T315 207Q322 220 328 231T347 250H346Q350 254 354 254T363 255Q374 255 387 248T411 231T429 208T436
183ZM238 624Q238 634 237 645T232 664Q218 647 208 624T190 575T179 523T172 475Q198 506 218 545T238 624ZM274 881Q274 871 269 862T254 846T235 835T216 831Q204 831 193 836T172 849Q140 872 125 883T99 904T73 926T28 963Q19 971 10 980T-4 1001V1009Q-4
1019 2 1032T19 1055T42 1073T66 1081Q81 1081 94 1070T118 1049L202 963Q209 956 221 947T245 926T265 903T274 881Z" />
<glyph unicode="&#xe9;" glyph-name="eacute" horiz-adv-x="433" d="M436 183Q436 153 420 121T377 63T318 19T251 2Q204 2 170 20T111 70T71 142T46 224T34 309T30 387Q30 417 33 458T45 543T69 630T106 707T160 762T233 783Q265 783 290 770T333 736T360 686T370
628Q370 589 352 543T306 454T242 377T171 324Q173 306 179 272T195 203T220 144T255 119Q265 119 272 125T286 141T296 163T305 186L311 200Q313 203 313 204T315 207Q322 220 328 231T347 250H346Q350 254 354 254T363 255Q374 255 387 248T411 231T429 208T436
183ZM238 624Q238 634 237 645T232 664Q218 647 208 624T190 575T179 523T172 475Q198 506 218 545T238 624ZM192 879Q192 889 200 901T220 924T244 944T264 961L362 1051Q374 1060 387 1071T416 1083Q426 1083 438 1076T461 1058T479 1034T486 1011Q486 1009 486
1007T484 1003Q481 991 472 982T452 965Q421 940 405 928T374 905T343 882T294 847Q283 839 273 834T250 829Q241 829 231 833T212 844T198 860T192 879Z" />
<glyph unicode="&#xea;" glyph-name="ecircumflex" horiz-adv-x="433" d="M436 183Q436 153 420 121T377 63T318 19T251 2Q204 2 170 20T111 70T71 142T46 224T34 309T30 387Q30 417 33 458T45 543T69 630T106 707T160 762T233 783Q265 783 290 770T333 736T360
686T370 628Q370 589 352 543T306 454T242 377T171 324Q173 306 179 272T195 203T220 144T255 119Q265 119 272 125T286 141T296 163T305 186L311 200Q313 203 313 204T315 207Q322 220 328 231T347 250H346Q350 254 354 254T363 255Q374 255 387 248T411 231T429
208T436 183ZM238 624Q238 634 237 645T232 664Q218 647 208 624T190 575T179 523T172 475Q198 506 218 545T238 624ZM384 841Q384 833 378 828T364 821T347 818T332 817Q323 817 313 817T294 823Q280 829 275 839T264 861Q252 893 240 923T214 983Q200 948 186
914T158 845Q155 836 152 830T140 817Q138 815 130 815Q122 815 113 819T95 831T82 847T76 865Q76 872 85 900T107 963T131 1029T148 1071Q157 1091 169 1102T206 1113Q234 1113 256 1091Q274 1073 286 1050T310 1003Q314 995 326 971T351 919T374 869T384 841Z"
/>
<glyph unicode="&#xeb;" glyph-name="edieresis" horiz-adv-x="433" d="M436 183Q436 153 420 121T377 63T318 19T251 2Q204 2 170 20T111 70T71 142T46 224T34 309T30 387Q30 417 33 458T45 543T69 630T106 707T160 762T233 783Q265 783 290 770T333 736T360
686T370 628Q370 589 352 543T306 454T242 377T171 324Q173 306 179 272T195 203T220 144T255 119Q265 119 272 125T286 141T296 163T305 186L311 200Q313 203 313 204T315 207Q322 220 328 231T347 250H346Q350 254 354 254T363 255Q374 255 387 248T411 231T429
208T436 183ZM238 624Q238 634 237 645T232 664Q218 647 208 624T190 575T179 523T172 475Q198 506 218 545T238 624ZM8 949Q8 959 15 964T32 972T53 975T72 975Q82 975 95 975T121 971T141 960T150 939Q150 934 150 918T149 882T148 848T146 831Q138 820 126 819T102
817Q71 817 56 820T34 832T26 857T20 899Q17 911 13 923T8 949ZM268 949Q268 959 275 964T292 972T313 975T332 975Q342 975 355 975T381 971T401 960T410 939Q410 934 410 918T409 882T408 848T406 831Q398 820 386 819T362 817Q331 817 316 820T294 832T286 857T280
899Q277 911 273 923T268 949Z" />
<glyph unicode="&#xec;" glyph-name="igrave" horiz-adv-x="254" d="M213 44Q213 21 203 12T169 2Q157 2 143 5T114 13T88 27T70 45Q66 51 63 82T59 159T56 262T54 377T53 490T53 586V663Q53 673 53 683T57 700T68 713T90 718Q134 718 154 694T180 628Q185 567
187 507T192 384Q194 328 195 274T202 165Q203 154 204 144T207 124Q209 104 211 85T213 44ZM160 821Q160 811 155 802T140 786T121 775T102 771Q90 771 79 776T58 789Q26 812 11 823T-15 844T-41 866T-86 903Q-95 911 -104 920T-118 941V949Q-118 959 -112 972T-95
995T-72 1013T-48 1021Q-33 1021 -20 1010T4 989L88 903Q95 896 107 887T131 866T151 843T160 821Z" />
<glyph unicode="&#xed;" glyph-name="iacute" horiz-adv-x="256" d="M213 44Q213 21 203 12T169 2Q157 2 143 5T114 13T88 27T70 45Q66 51 63 82T59 159T56 262T54 377T53 490T53 586V663Q53 673 53 683T57 700T68 713T90 718Q134 718 154 694T180 628Q185 567
187 507T192 384Q194 328 195 274T202 165Q203 154 204 144T207 124Q209 104 211 85T213 44ZM78 821Q78 831 86 843T106 866T130 886T150 903L248 993Q260 1002 273 1013T302 1025Q312 1025 324 1018T347 1000T365 976T372 953Q372 951 372 949T370 945Q367 933
358 924T338 907Q307 882 291 870T260 847T229 824T180 789Q169 781 159 776T136 771Q127 771 117 775T98 786T84 802T78 821Z" />
<glyph unicode="&#xee;" glyph-name="icircumflex" horiz-adv-x="255" d="M213 44Q213 21 203 12T169 2Q157 2 143 5T114 13T88 27T70 45Q66 51 63 82T59 159T56 262T54 377T53 490T53 586V663Q53 673 53 683T57 700T68 713T90 718Q134 718 154 694T180 628Q185
567 187 507T192 384Q194 328 195 274T202 165Q203 154 204 144T207 124Q209 104 211 85T213 44ZM269 784Q269 776 263 771T249 764T232 761T217 760Q208 760 198 760T179 766Q165 772 160 782T149 804Q137 836 125 866T99 926Q85 891 71 857T43 788Q40 779 37
773T25 760Q23 758 15 758Q7 758 -2 762T-20 774T-33 790T-39 808Q-39 815 -30 843T-8 906T16 972T33 1014Q42 1034 54 1045T91 1056Q119 1056 141 1034Q159 1016 171 993T195 946Q199 938 211 914T236 862T259 812T269 784Z" />
<glyph unicode="&#xef;" glyph-name="idieresis" horiz-adv-x="256" d="M213 44Q213 21 203 12T169 2Q157 2 143 5T114 13T88 27T70 45Q66 51 63 82T59 159T56 262T54 377T53 490T53 586V663Q53 673 53 683T57 700T68 713T90 718Q134 718 154 694T180 628Q185
567 187 507T192 384Q194 328 195 274T202 165Q203 154 204 144T207 124Q209 104 211 85T213 44ZM-87 917Q-87 927 -80 932T-63 940T-42 943T-23 943Q-13 943 0 943T26 939T46 928T55 907Q55 902 55 886T54 850T53 816T51 799Q43 788 31 787T7 785Q-24 785 -39
788T-61 800T-69 825T-75 867Q-78 879 -82 891T-87 917ZM173 917Q173 927 180 932T197 940T218 943T237 943Q247 943 260 943T286 939T306 928T315 907Q315 902 315 886T314 850T313 816T311 799Q303 788 291 787T267 785Q236 785 221 788T199 800T191 825T185
867Q182 879 178 891T173 917Z" />
<glyph unicode="&#xf0;" glyph-name="eth" horiz-adv-x="509" d="M223 684Q202 654 188 616T166 535T155 452T151 374Q151 344 154 298T167 203T192 114T235 54Q268 72 289 112T324 201T342 299T347 384Q347 410 344 452T334 537T313 617T279 672Q273 670 267
669T255 668Q236 668 223 684ZM49 1072Q49 1086 55 1098Q61 1115 66 1126T80 1143T99 1151T129 1154H181Q172 1190 163 1222T149 1284Q147 1294 145 1303T143 1320T149 1333T165 1340Q183 1345 209 1339T247 1314Q255 1302 270 1260T307 1154H401Q408 1154 418
1154T439 1151T457 1142T465 1126Q465 1100 448 1083T407 1060Q390 1057 373 1057T339 1056Q364 974 389 882T434 702T466 537T479 410Q479 322 465 236T405 72Q391 49 374 28T335 -11T288 -39T235 -50Q191 -50 159 -30T104 24T66 101T43 188T31 274T27 348Q27
384 30 427T40 515T60 604T93 687T140 756T205 804Q237 820 267 820H273Q270 831 268 841T263 862Q255 901 242 949T213 1048Q184 1046 156 1045T97 1044Q89 1044 81 1044T66 1047T54 1055T49 1072Z" />
<glyph unicode="&#xf1;" glyph-name="ntilde" horiz-adv-x="545" d="M214 5Q214 -18 201 -25T168 -32Q151 -32 135 -30T104 -20T79 -1T64 30Q50 90 48 147T46 266V389Q46 473 53 563T68 738Q68 741 69 745T70 751Q71 762 73 775T79 798T92 816T115 823Q131 823
145 817T171 800T188 774T195 743Q195 726 194 706T191 667Q191 662 191 656T189 645Q203 673 221 703T262 759T314 801T378 817Q407 817 426 808T456 783T472 744T477 697Q477 663 475 629T471 560Q468 525 466 491T464 422Q464 380 466 336T472 251T481 178T491
127Q495 112 499 93T508 53T516 13T519 -21Q519 -43 502 -49T467 -55Q450 -55 429 -53T390 -41Q369 -26 363 1T354 54L351 81Q348 105 343 144T334 230T326 327T323 426Q323 469 326 509T334 590Q336 611 337 624T340 658Q320 626 300 583T262 494T230 403T207
326L201 304Q196 288 193 272T189 242Q189 224 191 201T196 156Q199 131 203 105Q203 103 205 92T209 66T212 35T214 5ZM476 993Q476 943 446 913T360 883Q317 883 293 895T257 927T240 969T233 1010T224 1042T204 1055Q174 1055 174 1029Q174 1009 182 988T199
948T216 915T224 895Q224 883 210 879T186 875Q160 875 145 885T118 915Q104 941 93 968T82 1025Q82 1075 117 1100T206 1125Q245 1125 276 1107T320 1053Q322 1046 324 1030T330 998T340 968T358 955Q363 955 366 959T370 969T372 980T372 987Q372 1008 368 1029T356
1071Q353 1080 349 1087T344 1103Q344 1116 358 1120T384 1125Q412 1125 430 1113T458 1082T472 1040T476 993Z" />
<glyph unicode="&#xf2;" glyph-name="ograve" horiz-adv-x="507" d="M484 410Q484 323 470 237T410 73Q396 50 378 29T339 -10T292 -38T238 -49Q194 -49 162 -29T106 25T67 101T43 188T31 275T27 349Q27 385 30 428T40 516T60 605T93 687T141 756T206 805V804Q238
821 270 821Q290 821 301 813T311 784Q366 774 400 731T452 631T477 514T484 410ZM258 660Q241 660 226 673Q207 644 194 607T174 530T163 450T160 375Q160 346 163 301T174 209T198 123T239 64Q270 82 290 121T323 208T339 303T344 385Q344 410 341 450T331 531T312
609T280 663Q271 660 258 660ZM323 937Q323 927 318 918T303 902T284 891T265 887Q253 887 242 892T221 905Q189 928 174 939T148 960T122 982T77 1019Q68 1027 59 1036T45 1057V1065Q45 1075 51 1088T68 1111T91 1129T115 1137Q130 1137 143 1126T167 1105L251
1019Q258 1012 270 1003T294 982T314 959T323 937Z" />
<glyph unicode="&#xf3;" glyph-name="oacute" horiz-adv-x="507" d="M484 410Q484 323 470 237T410 73Q396 50 378 29T339 -10T292 -38T238 -49Q194 -49 162 -29T106 25T67 101T43 188T31 275T27 349Q27 385 30 428T40 516T60 605T93 687T141 756T206 805V804Q238
821 270 821Q290 821 301 813T311 784Q366 774 400 731T452 631T477 514T484 410ZM258 660Q241 660 226 673Q207 644 194 607T174 530T163 450T160 375Q160 346 163 301T174 209T198 123T239 64Q270 82 290 121T323 208T339 303T344 385Q344 410 341 450T331 531T312
609T280 663Q271 660 258 660ZM215 927Q215 937 223 949T243 972T267 992T287 1009L385 1099Q397 1108 410 1119T439 1131Q449 1131 461 1124T484 1106T502 1082T509 1059Q509 1057 509 1055T507 1051Q504 1039 495 1030T475 1013Q444 988 428 976T397 953T366
930T317 895Q306 887 296 882T273 877Q264 877 254 881T235 892T221 908T215 927Z" />
<glyph unicode="&#xf4;" glyph-name="ocircumflex" horiz-adv-x="507" d="M484 410Q484 323 470 237T410 73Q396 50 378 29T339 -10T292 -38T238 -49Q194 -49 162 -29T106 25T67 101T43 188T31 275T27 349Q27 385 30 428T40 516T60 605T93 687T141 756T206 805V804Q238
821 270 821Q290 821 301 813T311 784Q366 774 400 731T452 631T477 514T484 410ZM258 660Q241 660 226 673Q207 644 194 607T174 530T163 450T160 375Q160 346 163 301T174 209T198 123T239 64Q270 82 290 121T323 208T339 303T344 385Q344 410 341 450T331 531T312
609T280 663Q271 660 258 660ZM411 875Q411 867 405 862T391 855T374 852T359 851Q350 851 340 851T321 857Q307 863 302 873T291 895Q279 927 267 957T241 1017Q227 982 213 948T185 879Q182 870 179 864T167 851Q165 849 157 849Q149 849 140 853T122 865T109
881T103 899Q103 906 112 934T134 997T158 1063T175 1105Q184 1125 196 1136T233 1147Q261 1147 283 1125Q301 1107 313 1084T337 1037Q341 1029 353 1005T378 953T401 903T411 875Z" />
<glyph unicode="&#xf5;" glyph-name="otilde" horiz-adv-x="507" d="M484 410Q484 323 470 237T410 73Q396 50 378 29T339 -10T292 -38T238 -49Q194 -49 162 -29T106 25T67 101T43 188T31 275T27 349Q27 385 30 428T40 516T60 605T93 687T141 756T206 805V804Q238
821 270 821Q290 821 301 813T311 784Q366 774 400 731T452 631T477 514T484 410ZM258 660Q241 660 226 673Q207 644 194 607T174 530T163 450T160 375Q160 346 163 301T174 209T198 123T239 64Q270 82 290 121T323 208T339 303T344 385Q344 410 341 450T331 531T312
609T280 663Q271 660 258 660ZM453 983Q453 933 423 903T337 873Q294 873 270 885T234 917T217 959T210 1000T201 1032T181 1045Q151 1045 151 1019Q151 999 159 978T176 938T193 905T201 885Q201 873 187 869T163 865Q137 865 122 875T95 905Q81 931 70 958T59
1015Q59 1065 94 1090T183 1115Q222 1115 253 1097T297 1043Q299 1036 301 1020T307 988T317 958T335 945Q340 945 343 949T347 959T349 970T349 977Q349 998 345 1019T333 1061Q330 1070 326 1077T321 1093Q321 1106 335 1110T361 1115Q389 1115 407 1103T435
1072T449 1030T453 983Z" />
<glyph unicode="&#xf6;" glyph-name="odieresis" horiz-adv-x="507" d="M484 410Q484 323 470 237T410 73Q396 50 378 29T339 -10T292 -38T238 -49Q194 -49 162 -29T106 25T67 101T43 188T31 275T27 349Q27 385 30 428T40 516T60 605T93 687T141 756T206 805V804Q238
821 270 821Q290 821 301 813T311 784Q366 774 400 731T452 631T477 514T484 410ZM258 660Q241 660 226 673Q207 644 194 607T174 530T163 450T160 375Q160 346 163 301T174 209T198 123T239 64Q270 82 290 121T323 208T339 303T344 385Q344 410 341 450T331 531T312
609T280 663Q271 660 258 660ZM59 993Q59 1003 66 1008T83 1016T104 1019T123 1019Q133 1019 146 1019T172 1015T192 1004T201 983Q201 978 201 962T200 926T199 892T197 875Q189 864 177 863T153 861Q122 861 107 864T85 876T77 901T71 943Q68 955 64 967T59 993ZM319
993Q319 1003 326 1008T343 1016T364 1019T383 1019Q393 1019 406 1019T432 1015T452 1004T461 983Q461 978 461 962T460 926T459 892T457 875Q449 864 437 863T413 861Q382 861 367 864T345 876T337 901T331 943Q328 955 324 967T319 993Z" />
<glyph unicode="&#xf7;" glyph-name="divide" horiz-adv-x="552" d="M323 910Q323 906 323 892T322 863T321 834T319 820Q313 811 303 810T281 808Q255 808 243 810T226 820T219 841T213 876Q210 888 207 898T203 920Q203 935 217 938T243 942H261Q268 942 279
942T299 938T316 929T323 910ZM525 734Q525 720 518 704T503 676Q488 656 467 654T425 652Q334 650 245 649T65 648Q53 648 41 653T29 674Q29 703 48 718T93 739T148 745T197 748L481 764H487Q502 766 513 759T525 734ZM323 550Q323 546 323 532T322 503T321 474T319
460Q313 451 303 450T281 448Q255 448 243 450T226 460T219 481T213 516Q210 528 207 538T203 560Q203 575 217 578T243 582H261Q268 582 279 582T299 578T316 569T323 550Z" />
<glyph unicode="&#xf8;" glyph-name="oslash" horiz-adv-x="503" d="M271 661Q269 660 264 660T256 660Q248 660 240 664T225 673Q205 644 192 607T172 530T161 450T158 375Q158 349 159 323T163 270L271 661ZM300 312Q283 249 267 188T236 63L238 64Q268 84 288
124T320 210T337 304T342 385Q342 404 342 421T339 460L300 312ZM419 788Q419 775 415 760T407 729L406 721Q428 691 442 653T466 572T478 488T482 410Q482 323 468 237T408 73Q394 50 376 29T337 -10T290 -38T236 -49Q230 -49 224 -49T212 -48Q209 -65 200 -77T171
-89Q162 -89 147 -86T117 -75T92 -59T81 -37Q81 -25 84 -12T92 14V13Q94 18 95 22T98 32Q77 63 63 103T41 185T29 269T25 349Q25 404 31 472T57 605T112 724T204 805V804Q236 821 268 821Q282 821 293 816T306 798Q310 815 318 829T345 844Q356 844 369 841T393
830T411 813T419 788Z" />
<glyph unicode="&#xf9;" glyph-name="ugrave" horiz-adv-x="536" d="M470 660Q470 650 468 639T464 619Q462 608 460 599T458 580Q458 487 461 394T481 206Q486 170 493 136T509 67L511 61V63Q514 56 516 49T519 33Q519 22 514 15T500 4T483 -1T465 -2Q432 -2
413 5T381 26T364 59T354 101L351 119Q347 133 346 149Q345 157 345 157T343 164Q329 139 311 111T269 58T218 17T160 0Q117 0 94 26T59 89T46 167T44 238Q44 352 51 464T68 689Q68 692 68 697T69 705Q70 719 71 731T76 754V753Q80 769 87 776T111 783Q126 783
141 778T168 763T187 740T195 711Q195 703 195 692T194 673Q194 666 194 656T193 638Q185 542 181 448T177 256Q177 229 177 202T183 148Q216 190 240 255T280 394T307 540T323 669Q323 672 323 676T324 683Q325 694 326 704T333 723Q333 732 334 742T339 760T350
774T372 779Q412 779 435 755T460 692Q465 684 467 677T470 660ZM316 869Q316 859 311 850T296 834T277 823T258 819Q246 819 235 824T214 837Q182 860 167 871T141 892T115 914T70 951Q61 959 52 968T38 989V997Q38 1007 44 1020T61 1043T84 1061T108 1069Q123
1069 136 1058T160 1037L244 951Q251 944 263 935T287 914T307 891T316 869Z" />
<glyph unicode="&#xfa;" glyph-name="uacute" horiz-adv-x="537" d="M470 660Q470 650 468 639T464 619Q462 608 460 599T458 580Q458 487 461 394T481 206Q486 170 493 136T509 67L511 61V63Q514 56 516 49T519 33Q519 22 514 15T500 4T483 -1T465 -2Q432 -2
413 5T381 26T364 59T354 101L351 119Q347 133 346 149Q345 157 345 157T343 164Q329 139 311 111T269 58T218 17T160 0Q117 0 94 26T59 89T46 167T44 238Q44 352 51 464T68 689Q68 692 68 697T69 705Q70 719 71 731T76 754V753Q80 769 87 776T111 783Q126 783
141 778T168 763T187 740T195 711Q195 703 195 692T194 673Q194 666 194 656T193 638Q185 542 181 448T177 256Q177 229 177 202T183 148Q216 190 240 255T280 394T307 540T323 669Q323 672 323 676T324 683Q325 694 326 704T333 723Q333 732 334 742T339 760T350
774T372 779Q412 779 435 755T460 692Q465 684 467 677T470 660ZM230 869Q230 879 238 891T258 914T282 934T302 951L400 1041Q412 1050 425 1061T454 1073Q464 1073 476 1066T499 1048T517 1024T524 1001Q524 999 524 997T522 993Q519 981 510 972T490 955Q459
930 443 918T412 895T381 872T332 837Q321 829 311 824T288 819Q279 819 269 823T250 834T236 850T230 869Z" />
<glyph unicode="&#xfb;" glyph-name="ucircumflex" horiz-adv-x="536" d="M470 660Q470 650 468 639T464 619Q462 608 460 599T458 580Q458 487 461 394T481 206Q486 170 493 136T509 67L511 61V63Q514 56 516 49T519 33Q519 22 514 15T500 4T483 -1T465 -2Q432
-2 413 5T381 26T364 59T354 101L351 119Q347 133 346 149Q345 157 345 157T343 164Q329 139 311 111T269 58T218 17T160 0Q117 0 94 26T59 89T46 167T44 238Q44 352 51 464T68 689Q68 692 68 697T69 705Q70 719 71 731T76 754V753Q80 769 87 776T111 783Q126 783
141 778T168 763T187 740T195 711Q195 703 195 692T194 673Q194 666 194 656T193 638Q185 542 181 448T177 256Q177 229 177 202T183 148Q216 190 240 255T280 394T307 540T323 669Q323 672 323 676T324 683Q325 694 326 704T333 723Q333 732 334 742T339 760T350
774T372 779Q412 779 435 755T460 692Q465 684 467 677T470 660ZM414 867Q414 859 408 854T394 847T377 844T362 843Q353 843 343 843T324 849Q310 855 305 865T294 887Q282 919 270 949T244 1009Q230 974 216 940T188 871Q185 862 182 856T170 843Q168 841 160
841Q152 841 143 845T125 857T112 873T106 891Q106 898 115 926T137 989T161 1055T178 1097Q187 1117 199 1128T236 1139Q264 1139 286 1117Q304 1099 316 1076T340 1029Q344 1021 356 997T381 945T404 895T414 867Z" />
<glyph unicode="&#xfc;" glyph-name="udieresis" horiz-adv-x="536" d="M470 660Q470 650 468 639T464 619Q462 608 460 599T458 580Q458 487 461 394T481 206Q486 170 493 136T509 67L511 61V63Q514 56 516 49T519 33Q519 22 514 15T500 4T483 -1T465 -2Q432
-2 413 5T381 26T364 59T354 101L351 119Q347 133 346 149Q345 157 345 157T343 164Q329 139 311 111T269 58T218 17T160 0Q117 0 94 26T59 89T46 167T44 238Q44 352 51 464T68 689Q68 692 68 697T69 705Q70 719 71 731T76 754V753Q80 769 87 776T111 783Q126 783
141 778T168 763T187 740T195 711Q195 703 195 692T194 673Q194 666 194 656T193 638Q185 542 181 448T177 256Q177 229 177 202T183 148Q216 190 240 255T280 394T307 540T323 669Q323 672 323 676T324 683Q325 694 326 704T333 723Q333 732 334 742T339 760T350
774T372 779Q412 779 435 755T460 692Q465 684 467 677T470 660ZM64 979Q64 989 71 994T88 1002T109 1005T128 1005Q138 1005 151 1005T177 1001T197 990T206 969Q206 964 206 948T205 912T204 878T202 861Q194 850 182 849T158 847Q127 847 112 850T90 862T82
887T76 929Q73 941 69 953T64 979ZM324 979Q324 989 331 994T348 1002T369 1005T388 1005Q398 1005 411 1005T437 1001T457 990T466 969Q466 964 466 948T465 912T464 878T462 861Q454 850 442 849T418 847Q387 847 372 850T350 862T342 887T336 929Q333 941 329
953T324 979Z" />
<glyph unicode="&#xfd;" glyph-name="yacute" horiz-adv-x="493" d="M438 -68Q438 -109 435 -154T425 -244T406 -334T376 -416Q346 -472 301 -514T201 -586T86 -630T-37 -645Q-46 -645 -58 -644T-83 -640T-103 -628T-111 -606Q-111 -600 -108 -594Q-108 -592 -108
-591T-107 -588Q-100 -568 -91 -556T-71 -538T-44 -529T-8 -524Q56 -521 113 -494V-495Q178 -463 215 -416T272 -311T297 -189T302 -60Q302 -45 302 -38T302 -26T302 -13T301 9Q266 -18 228 -18Q184 -18 154 6T103 70T71 160T54 263T47 366T45 455V497Q45 550 45
601T49 703V718Q49 730 49 742T51 765Q55 781 62 788T87 795Q95 795 102 794T118 791Q137 783 148 775T164 755T171 728T173 693V559Q173 535 173 500T176 422T181 335T190 248T204 171T224 113Q242 152 255 204T276 317T289 442T296 567T299 682T300 778Q300 788
300 799T305 820T316 836T339 842Q346 842 354 840T369 836Q371 836 373 836T378 835Q392 830 405 825T427 813T442 793T448 762Q448 739 448 710T446 648T442 586T438 531L434 496Q432 482 431 468T430 442Q430 378 431 315T434 187Q436 123 437 60T438 -68ZM176
915Q176 925 184 937T204 960T228 980T248 997L346 1087Q358 1096 371 1107T400 1119Q410 1119 422 1112T445 1094T463 1070T470 1047Q470 1045 470 1043T468 1039Q465 1027 456 1018T436 1001Q405 976 389 964T358 941T327 918T278 883Q267 875 257 870T234 865Q225
865 215 869T196 880T182 896T176 915Z" />
<glyph unicode="&#xfe;" glyph-name="thorn" horiz-adv-x="557" d="M178 258Q178 210 178 163T180 68Q188 77 196 82T216 96Q269 135 306 192T368 314T403 449T414 582Q414 594 414 616T409 661T395 699T368 716Q350 716 332 702T298 664T266 613T238 558T216
506T202 468Q196 454 189 437T180 404Q178 390 178 371T177 333T177 294T178 258ZM234 -666Q234 -686 223 -693T194 -700Q170 -700 142 -694T98 -666Q94 -662 91 -637T84 -577T77 -501T72 -421T67 -354T64 -312Q52 -96 52 120Q52 158 53 216T57 348T63 505T70 677T78
855T88 1029T98 1189T108 1326Q110 1341 110 1356T112 1386Q117 1400 123 1406T144 1412Q185 1412 203 1390T224 1332Q224 1331 223 1304T220 1233T214 1134T207 1021T200 908T194 808T190 737T188 708Q221 758 266 787T374 816Q423 816 455 795T507 739T535 662T544
580Q544 499 532 420T491 267T417 129T306 12Q298 5 287 -3T264 -18T240 -29T218 -34Q204 -34 195 -25T180 -6Q185 -157 193 -309T226 -610Q229 -624 231 -637T234 -666Z" />
<glyph unicode="&#xff;" glyph-name="ydieresis" horiz-adv-x="493" d="M438 -68Q438 -109 435 -154T425 -244T406 -334T376 -416Q346 -472 301 -514T201 -586T86 -630T-37 -645Q-46 -645 -58 -644T-83 -640T-103 -628T-111 -606Q-111 -600 -108 -594Q-108 -592
-108 -591T-107 -588Q-100 -568 -91 -556T-71 -538T-44 -529T-8 -524Q56 -521 113 -494V-495Q178 -463 215 -416T272 -311T297 -189T302 -60Q302 -45 302 -38T302 -26T302 -13T301 9Q266 -18 228 -18Q184 -18 154 6T103 70T71 160T54 263T47 366T45 455V497Q45
550 45 601T49 703V718Q49 730 49 742T51 765Q55 781 62 788T87 795Q95 795 102 794T118 791Q137 783 148 775T164 755T171 728T173 693V559Q173 535 173 500T176 422T181 335T190 248T204 171T224 113Q242 152 255 204T276 317T289 442T296 567T299 682T300 778Q300
788 300 799T305 820T316 836T339 842Q346 842 354 840T369 836Q371 836 373 836T378 835Q392 830 405 825T427 813T442 793T448 762Q448 739 448 710T446 648T442 586T438 531L434 496Q432 482 431 468T430 442Q430 378 431 315T434 187Q436 123 437 60T438 -68ZM36
1059Q36 1069 43 1074T60 1082T81 1085T100 1085Q110 1085 123 1085T149 1081T169 1070T178 1049Q178 1044 178 1028T177 992T176 958T174 941Q166 930 154 929T130 927Q99 927 84 930T62 942T54 967T48 1009Q45 1021 41 1033T36 1059ZM296 1059Q296 1069 303 1074T320
1082T341 1085T360 1085Q370 1085 383 1085T409 1081T429 1070T438 1049Q438 1044 438 1028T437 992T436 958T434 941Q426 930 414 929T390 927Q359 927 344 930T322 942T314 967T308 1009Q305 1021 301 1033T296 1059Z" />
<glyph unicode="&#x2013;" glyph-name="endash" horiz-adv-x="820" d="M810 774Q810 760 804 748Q798 731 793 720T779 703T759 695T728 692H74Q67 692 57 692T36 695T18 703T10 720Q10 744 27 762T68 786Q88 789 108 789T148 792Q167 793 214 794T323 796T454
798T584 800T693 801T760 802Q768 802 777 802T793 799T805 790T810 774Z" />
<glyph unicode="&#x2014;" glyph-name="emdash" horiz-adv-x="1620" d="M1610 774Q1610 760 1604 748Q1598 731 1593 720T1579 703T1559 695T1528 692H74Q67 692 57 692T36 695T18 703T10 720Q10 744 27 762T68 786Q88 789 108 789T148 792Q159 793 204 793T317
794T472 796T656 797T854 798T1052 799T1236 800T1391 801T1504 802T1560 802Q1568 802 1577 802T1593 799T1605 790T1610 774Z" />
<glyph unicode="&#x2018;" glyph-name="quoteleft" horiz-adv-x="196" d="M213 1294Q213 1286 207 1276T194 1256T179 1235T167 1218Q153 1195 146 1175T136 1136T131 1095T125 1048Q123 1031 114 1026T89 1020Q47 1020 24 1036T1 1098Q1 1161 21 1218T77 1326Q81
1333 87 1341T100 1356T115 1369T131 1374Q142 1374 156 1366T183 1345T204 1319T213 1294Z" />
<glyph unicode="&#x2019;" glyph-name="quoteright" horiz-adv-x="194" d="M197 1296Q197 1234 177 1177T121 1068Q116 1062 111 1054T98 1038T83 1025T67 1020Q56 1020 42 1028T15 1049T-6 1075T-15 1100Q-15 1108 -9 1118T4 1139T20 1160T33 1178Q46 1201 53
1221T63 1260T67 1300T73 1346Q75 1364 84 1369T111 1374Q152 1374 174 1359T197 1296Z" />
<glyph unicode="&#x201a;" glyph-name="quotesinglbase" horiz-adv-x="194" d="M171 96Q171 34 151 -23T95 -132Q90 -138 85 -146T72 -162T57 -175T41 -180Q30 -180 16 -172T-11 -151T-32 -125T-41 -100Q-41 -92 -35 -82T-22 -61T-6 -40T7 -22Q20 1 27 21T37 60T41
100T47 146Q49 164 58 169T85 174Q126 174 148 159T171 96Z" />
<glyph unicode="&#x201c;" glyph-name="quotedblleft" horiz-adv-x="396" d="M413 1294Q413 1286 407 1276T394 1256T379 1235T367 1218Q353 1195 346 1175T336 1136T331 1095T325 1048Q323 1031 314 1026T289 1020Q247 1020 224 1036T201 1098Q201 1161 221 1218T277
1326Q281 1333 287 1341T300 1356T315 1369T331 1374Q342 1374 356 1366T383 1345T404 1319T413 1294ZM213 1294Q213 1286 207 1276T194 1256T179 1235T167 1218Q153 1195 146 1175T136 1136T131 1095T125 1048Q123 1031 114 1026T89 1020Q47 1020 24 1036T1 1098Q1
1161 21 1218T77 1326Q81 1333 87 1341T100 1356T115 1369T131 1374Q142 1374 156 1366T183 1345T204 1319T213 1294Z" />
<glyph unicode="&#x201d;" glyph-name="quotedblright" horiz-adv-x="394" d="M197 1296Q197 1234 177 1177T121 1068Q116 1062 111 1054T98 1038T83 1025T67 1020Q56 1020 42 1028T15 1049T-6 1075T-15 1100Q-15 1108 -9 1118T4 1139T20 1160T33 1178Q46 1201
53 1221T63 1260T67 1300T73 1346Q75 1364 84 1369T111 1374Q152 1374 174 1359T197 1296ZM397 1296Q397 1234 377 1177T321 1068Q316 1062 311 1054T298 1038T283 1025T267 1020Q256 1020 242 1028T215 1049T194 1075T185 1100Q185 1108 191 1118T204 1139T220
1160T233 1178Q246 1201 253 1221T263 1260T267 1300T273 1346Q275 1364 284 1369T311 1374Q352 1374 374 1359T397 1296Z" />
<glyph unicode="&#x201e;" glyph-name="quotedblbase" horiz-adv-x="394" d="M171 96Q171 34 151 -23T95 -132Q90 -138 85 -146T72 -162T57 -175T41 -180Q30 -180 16 -172T-11 -151T-32 -125T-41 -100Q-41 -92 -35 -82T-22 -61T-6 -40T7 -22Q20 1 27 21T37 60T41
100T47 146Q49 164 58 169T85 174Q126 174 148 159T171 96ZM371 96Q371 34 351 -23T295 -132Q290 -138 285 -146T272 -162T257 -175T241 -180Q230 -180 216 -172T189 -151T168 -125T159 -100Q159 -92 165 -82T178 -61T194 -40T207 -22Q220 1 227 21T237 60T241
100T247 146Q249 164 258 169T285 174Q326 174 348 159T371 96Z" />
<glyph unicode="&#x2022;" glyph-name="bullet" horiz-adv-x="320" d="M281 704Q281 680 272 658T246 619T208 592T161 582Q134 582 112 593T73 622T48 664T39 714Q39 739 47 763T72 805T110 835T161 846Q190 846 212 834T250 802T273 757T281 704Z" />
<glyph unicode="&#x2039;" glyph-name="guilsinglleft" horiz-adv-x="308" d="M303 102Q303 91 292 84T265 72T234 65T211 62Q202 62 194 63T177 70Q167 75 148 98T109 150T70 205T45 244Q28 268 12 296T-5 354Q-5 367 0 380T14 405T32 429T49 452L135 582Q140
590 147 602T163 626T182 646T203 654Q213 654 223 648T241 633T255 612T261 590Q261 583 253 565T231 524T201 473T170 422T143 379T125 350Q148 302 184 257T253 170Q265 156 276 144T299 116Q303 108 303 102Z" />
<glyph unicode="&#x203a;" glyph-name="guilsinglright" horiz-adv-x="308" d="M313 362Q313 348 308 335T294 310T277 286T261 264L173 132Q168 124 161 113T146 90T127 70T107 62Q96 62 86 68T67 83T53 103T47 124Q47 131 55 149T77 192T107 243T138 294T165
337T183 366Q162 414 126 458T55 544Q44 559 32 572T11 600Q5 606 5 614Q5 624 16 632T43 644T75 651T99 654Q108 654 116 652T133 644Q143 639 161 616T200 565T239 511T265 472Q280 448 296 420T313 362Z" />
</font>
</defs>
</svg>
